STEP by STEP UP↑↑↑↑
fourfolium

ADVANCED

Level: 6
BPM: 175
Notes: 285

1
口口口口 |----|
口口口口 |----|
口口口口 |----|
口口口口 |----|
2
口口口口 |----|
口口口口 |----|
口①①口 |①---|
口口口口 |----|
3
口②①口 |①---|
口口口口 |----|
口口③口 |②---|
口口口口 |--③-|
4
③口口口 |--①-|
②口口口 |②-③-|
①口口口 |----|
口口口口 |----|
5
口①②口 |①---|
口口口口 |----|
口③口口 |②---|
口口口口 |--③-|
6
口口口③ |--①-|
口④④② |②-③-|
口口口① |----|
口口口口 |④---|
7
②口口② |①---|
口口口③ |----|
口①①口 |②---|
口口口口 |--③-|
8
口口③口 |--①-|
①②口口 |②-③-|
口口④口 |----|
口口口口 |④---|
9
口口口口 |①---|
口口口口 |----|
口口口口 |----|
②口①② |②---|
10
③③③③ |①---|
口②②口 |----|
口①①口 |②---|
口口口口 |--③-|
11
口口口口 |----|
口口口口 |----|
口口口口 |----|
口口口口 |----|
12
口口口口 |----|
口口口口 |----|
口口口口 |----|
口口口口 |----|
13
口口口口 |①---|
口口①口 |②---|
④②口口 |③---|
口口③口 |--④-|
14
②口口口 |--①-|
①口口口 |--②-|
口口口口 |----|
口口口口 |----|
15
口口口④ |①---|
口③口① |--②-|
口②口口 |--③-|
口口口口 |--④-|
16
①口口口 |----|
②口口口 |①-②-|
口口口口 |----|
口口口口 |----|
17
口①口口 |①---|
口口②口 |②---|
口③口口 |③---|
口口④口 |④---|
18
①口口① |①---|
口口口口 |②-③-|
②口口② |----|
③口口③ |----|
19
口②①口 |①---|
②口口① |--②-|
口口口口 |----|
口口口口 |----|
20
口口口口 |①-②-|
口①①口 |③---|
口②②口 |----|
口③③口 |----|
21
口口口① |----|
口口②口 |①---|
③口口口 |②---|
口口口口 |--③-|
22
口口①口 |--①-|
口②口口 |②-③-|
口口③口 |----|
口口口口 |----|
23
①口口口 |----|
口②口③ |①---|
口口口口 |②---|
口口口口 |--③-|
24
口口④口 |--①-|
③②①口 |--②-|
口口口口 |--③-|
口口口口 |--④-|
25
口口口① |----|
口口②口 |①---|
口③口口 |②---|
口口口口 |③---|
26
口④口口 |①---|
口口⑤口 |②-③-|
口⑥③② |--④-|
①口口口 |⑤-⑥-|
27
口口口口 |①---|
口口口口 |----|
口口口口 |----|
口口①口 |----|
28
口④③口 |①---|
④口口③ |②---|
②口口① |③---|
口②①口 |④---|
29
口口口口 |----|
口口口口 |①---|
③口口口 |②---|
口口②① |--③-|
30
口④④口 |--①-|
口口口口 |--②-|
口①②③ |--③-|
口口口口 |--④-|
31
③口口③ |----|
②口口② |----|
①口口① |--①-|
口口口口 |②-③-|
32
口口口口 |----|
口口口口 |----|
口口口口 |----|
口口口口 |----|
33
口口口口 |----|
口口口口 |①---|
口口口③ |②---|
①②口口 |--③-|
34
口④④口 |--①-|
口口口口 |--②-|
③②①口 |--③-|
口口口口 |--④-|
35
口口口口 |----|
口口口口 |----|
口口口口 |----|
口口口口 |----|
36
口口口④ |--①-|
口口③口 |②-③-|
口②口口 |④---|
①口口口 |----|
37
①①⑤口 |①---|
口口口③ |②---|
②②口④ |③-④-|
口口口口 |--⑤-|
38
①口口口 |--①-|
口②口口 |②-③-|
口口③口 |----|
口口口口 |----|
39
口⑤①① |①---|
③口口口 |②---|
④口②② |③-④-|
口口口口 |--⑤-|
40
口口④① |--①-|
口⑤②口 |②-③-|
口③⑥口 |--④-|
口口口口 |⑤-⑥-|
41
口口口① |--①-|
④口口④ |--②-|
②③口口 |③---|
口口口口 |--④-|
42
⑤④口口 |--①-|
口口③口 |--②-|
口②口口 |③-④-|
口①①口 |--⑤-|
43
口口口⑥ |--①-|
口口⑤口 |②---|
口④②① |③-④-|
③口口口 |⑤-⑥-|
44
②口②口 |----|
口①口① |①---|
口③①③ |②---|
口①口口 |③---|
45
口①④① |①---|
口③③④ |②---|
②口②口 |③---|
口口口口 |--④-|
46
③口口口 |--①-|
②口口口 |②-③-|
①口口口 |----|
口口口口 |----|
47
口①口① |①---|
口口口口 |②---|
②口②口
口口口口

口④口口
④③③口
口口口口 |③---|
口口口口 |--④-|
48
口口口③ |--①-|
口口口② |②-③-|
口口口① |----|
口口口口 |----|
49
口口口口 |----|
①口②口 |①---|
口③口口 |②---|
②口①口 |③---|
50
①口口口 |①-②-|
口②口口 |③-④-|
口口③口 |----|
口⑤⑤④ |--⑤-|
51
②口口② |----|
口①①口 |①---|
③口口③ |②---|
口口口口 |③---|
52
②口②口 |----|
口①口① |①---|
口③①③ |②---|
口①口口 |③---|
53
口①④① |①---|
口③③④ |②---|
②口②口 |③---|
口口口口 |--④-|
54
③口口口 |--①-|
②口口口 |②-③-|
①口口口 |----|
口口口口 |----|
55
口①口① |①---|
口口口口 |②---|
②口②口
口口口口

口④口口
④③③口
口口口口 |③---|
口口口口 |--④-|
56
口口口③ |--①-|
口口口② |②-③-|
口⑤口① |----|
口口④口 |④-⑤-|
57
②口口口 |①---|
③口①口 |--②-|
口口口④ |③---|
口口口口 |--④-|
58
口口口① |--①-|
口口②口 |②-③-|
口③口口 |----|
口口口口 |----|
59
①口口② |①---|
①口口② |--②-|
③口口③ |----|
口口口口 |--③-|
60
口口口口 |----|
①口口① |----|
②口口② |①---|
口口口口 |②---|
61
口口口口 |①---|
口①①口 |----|
口①①口 |----|
②口口② |②---|
62
③③③③ |①---|
口②②口 |----|
口①①口 |②---|
口口口口 |--③-|
63
口口口口 |----|
口口口口 |----|
口口口口 |----|
口口口口 |----|
64
口口口口 |--①-|
口口口口 |②-③-|
口口口口 |④---|
①②③④ |----|
65
口口口口 |①---|
①①①① |----|
①口口① |----|
口口口口 |----|

不確定度: 0

最終更新:2018年07月16日 22:59