ユメイロコンパス
fourfolium

BASIC

Level: 2
BPM: 130
Notes: 134

1
口口口口 |----|
口口口口 |----|
口口口口 |----|
口口口口 |----|
2
口口口口 |----|
口口口口 |----|
口口口口 |----|
口口口口 |----|
3
口口口口 |①---|
口口口口 |----|
口①口口 |----|
口口口口 |----|
4
口口口口 |①---|
口口口口 |----|
口口①口 |----|
口口口口 |----|
5
口口口口 |①---|
口①口口 |----|
口口口口 |----|
口口口口 |----|
6
口口口口 |①---|
口口①口 |----|
口口口口 |----|
口口口口 |----|
7
口口口① |①---|
口口口② |----|
口口口口 |②---|
口口口口 |----|
8
口口口口 |①---|
口口口口 |----|
口①①口 |----|
口口口口 |----|
9
①口口口 |①---|
②口口口 |----|
口口口口 |②---|
口口口口 |----|
10
口口口口 |①---|
口口口口 |----|
口①①口 |----|
口口口口 |----|
11
口口②口 |①---|
口口口① |----|
口口口口 |②---|
口口口口 |----|
12
口①口口 |①---|
②口口口 |----|
口口口口 |②---|
口口口口 |----|
13
口口口口 |①---|
口②②口 |----|
口①①口 |②---|
口口口口 |----|
14
口①①口 |①---|
口口口口 |----|
口口口口 |----|
口口口口 |----|
15
①口口口 |①---|
口②口口 |----|
口口口口 |②---|
口口口口 |----|
16
口口口口 |①---|
口口口口 |----|
口①①口 |----|
口口口口 |----|
17
口口口① |①---|
口口②口 |----|
口口口口 |②---|
口口口口 |----|
18
口口口口 |①---|
口口口口 |----|
口①①口 |----|
口口口口 |----|
19
口②口口 |①---|
①口口口 |----|
口口口口 |②---|
口口口口 |----|
20
口口①口 |①---|
口口口② |----|
口口口口 |②---|
口口口口 |----|
21
口口口口 |①---|
口②②口 |----|
口①①口 |②---|
口口口口 |----|
22
②①①② |①---|
口口口口 |----|
口口口口 |②---|
口口口口 |----|
23
口口口口 |①---|
①①口口 |----|
口口口口 |----|
口口口口 |----|
24
口口口口 |①---|
口口①① |----|
口口口口 |----|
口口口口 |----|
25
口口口口 |①---|
口口口口 |----|
①①口口 |----|
口口口口 |----|
26
口口口口 |①---|
口口口口 |----|
口口①① |----|
口口口口 |----|
27
口口口口 |①---|
口②②口 |----|
口①口口 |②---|
口口口口 |----|
28
口口口口 |①---|
口②②口 |----|
口口①口 |②---|
口口口口 |----|
29
①口口① |①---|
②口口② |----|
口口口口 |②---|
口口口口 |----|
30
口口口口 |①---|
口①①口 |----|
口①①口 |----|
口口口口 |----|
31
口口口口 |①---|
②口口② |----|
①口口① |②---|
口口口口 |----|
32
口③口口 |①---|
口②口口 |②---|
口①口口 |③---|
口口口口 |----|
33
口口口口 |①---|
②口口② |----|
①口口① |②---|
口口口口 |----|
34
口口①口 |①---|
口口②口 |②---|
口口③口 |③---|
口口口口 |----|
35
口口口口 |①---|
口口口① |----|
口②②口 |②---|
口口口口 |----|
36
口口口口 |①---|
①口口口 |----|
口②②口 |②---|
口口口口 |----|
37
口①①口 |①---|
口②②口 |----|
口口口口 |②---|
口口口口 |----|
38
口口口口 |①---|
口口口口 |----|
口①①口 |②---|
口②②口 |----|
39
口口口口 |①---|
②口口② |----|
①口口① |②---|
口口口口 |----|
40
口口③口 |①---|
口②口口 |②---|
口口①口 |③---|
口口口口 |----|
41
口口口口 |①---|
②口口② |----|
①口口① |②---|
口口口口 |----|
42
口①口口 |①---|
口口②口 |②---|
口③口口 |③---|
口口口口 |----|
43
口口口口 |①---|
②②①① |----|
口口口口 |②---|
口口口口 |----|
44
口口口口 |①---|
口②②口 |----|
口①①口 |②---|
口口口口 |----|
45
①口口① |①---|
②口口② |----|
口口口口 |②---|
口口口口 |----|
46
口口口口 |①---|
口口口口 |----|
①口口① |②---|
②口口② |----|
47
口口口口 |①---|
口①①口 |----|
口①①口 |----|
口口口口 |----|
48
①①②② |①---|
口口口口 |----|
口口口口 |②---|
口口口口 |----|
49
口口口口 |①---|
①①①① |----|
口口口口 |----|
口口口口 |----|

不確定度: 0

最終更新:2018年07月16日 23:03