灼熱Beach Side Bunny
DJ Mass MAD Izm*

EXTREME

Level: 10.7
BPM: 153
Notes: 1606 (667)

短HOLD (=1/300s) 非表示
1
口口口口 |----|
口口口口 |----|
口口口口 |----|
口口口口 |----|
2
①③口 |①-②-|
口口口口 |③④⑤-|
口口口口
口⑤口

⑧口口口
⑧⑥
口⑦口 |⑥--⑦|
口口口口 |--⑧-|
3
口②口① |①---|
口⑤口① |②-③-|
④口口③ |④--⑤|
④⑥口③ |--⑥-|
4
①③口 |①-②-|
口口口口 |③④⑤-|
口口口口
⑤口口

⑧口口口
⑧⑥
口⑦口 |⑥--⑦|
口口口口 |--⑧-|
5
口②②① |①---|
口口口① |②-③-|
②③④② |④---|
口③④口 |----|
6
③①口 |①-②-|
①⑤口 |③④--|
③⑥口 |⑤--⑥|
⑦⑦口 |--⑦-|
7
口口①② |①---|
口口口① |②---|
口口口②
口口口口

口口口口
口③③⑤
口④④口 |③--④|
口口⑤口 |--⑤-|
8
③①口 |①-②-|
①⑤口 |③④--|
③⑥口 |⑤--⑥|
⑦⑦口 |--⑦-|
9
③口①② |①---|
口口口① |②-③-|
口口口②
口口口口

口口口口
⑥口口⑤
口④④口 |④--⑤|
⑥口口⑤ |--⑥-|
10
③①口 |①-②-|
口③口口 |③-④-|
①④
口口口口

口⑥口口
⑦口
口口口口 |⑤--⑥|
⑦⑤口 |--⑦-|
11
口③①② |①---|
④口口① |②---|
③口② |③--④|
④口口 |--⑤⑥|
12
①⑤ |①-②-③-|
⑥② |④---|
③⑦ |⑤-⑥-⑦-|
⑧④ |⑧---|
13
①④ |①-②-③-|
⑤② |④-⑤-⑥-|
③⑥
口口口口

⑨口口

口口口口 |⑦-⑧-⑨-|
⑧⑦ |⑩---|
14
口①口 |①---|
①口① |②-③-|
②口口口
口②②口

④口口
口⑥口
口④⑥ |④-⑤⑥|
⑥口口⑦ |--⑦-|
15
②口 |①---|
①口①口 |②-③-|
口口口口
口②①口

口口⑤
⑥口口口
口口④ |④--⑤|
⑥口口口 |--⑥-|
16
口③口 |①-②-|
口①口① |③-④-|
③口口口
口①④②

⑤口口
口⑦口
口⑤⑦ |⑤-⑥⑦|
⑦口口⑧ |--⑧-|
17
口 |①-②-|
①口口口 |③-④-|
①口口口
④④口口

口口口口
口口
口口 |⑤--⑥|
口口⑤口 |⑦⑧⑨-|
18
|①-②③|
|④-⑤-⑥-⑦--⑧--|
|⑨⑩-⑪|
|⑫⑬⑭-|
19
|①-②-|
⑤③口 |③-④-|
②⑦ |⑤-⑥⑦|
④ |⑧-⑨-|
20
①口 |①-②-|
口③口 |③-④⑤|
③口
①口口口


口口⑥口
口口口口 |⑥⑦-⑧|
口⑨⑩⑧ |⑨⑩⑪⑫|
21
口口口 |①-②-|
口口口 |③-④-|
口口口④
③口口口

口口
口口
⑩口 |⑤-⑥⑦|
口口口 |⑧-⑨⑩|
22
口口口 |①-②-|
②口口口 |③④--|
③口口口
①④口④

口⑤口
⑦口
口⑥口口 |⑤--⑥|
口口⑥口 |--⑦-|
23
口④口 |①②③-|
口口 |④⑤--|
口口
口口

口口口口
口⑥
口⑨口口 |⑥--⑦|
⑥口口⑦ |--⑧⑨|
24
口⑤口 |①-②-|
口口口口 |③④⑤-|
口口口④
口③①口

口口⑧
口口
⑥口口口 |⑥--⑦|
⑦口口⑦ |--⑧-|
25
口⑪ |①②③-|
|④⑤⑥⑦|
|⑧⑨⑩⑪|
⑥口 |⑫-⑬-|
26
③⑦ |①-②-|
⑥口口 |③④--|
口⑤口口 |⑤--⑥|
口①⑥④ |--⑦-|
27
口④口 |①②③-|
⑧⑥ |④⑤--|
⑨口⑩ |⑥-⑦⑧|
口⑦ |⑨-⑩-|
28
口① |①-②-|
口 |③④⑤⑥|
⑩ |⑦⑧⑨⑩|
③⑤④口 |--⑪-|
29
口 |①-②-|
口口⑩⑤ |③④⑤⑥|
口口口 |⑦⑧⑨⑩|
①⑧⑨③


口口口口
口口口口
口口口口 |⑪-⑫-|

口口口
口口口口
口口口口
口口口口
30
口口 |①②③④|
①②口口 |⑤⑥⑦⑧|
口口
⑦⑧口口


口口
口口口 |⑨⑩⑪-|
口口口 |⑫-⑬-|

口口口
口口口口
口口口口
口口口口
31
口口 |①-②-|
口口④③ |③④⑤⑥|
口口
②口口口

口口
口口口口
|⑦-⑧-|
口口口 |⑨-⑩-|

口口口口
口口口口
口口口
口口口口
32
|①②③④|
口口 |⑤⑥⑦-|
口口⑤⑥ |⑧-⑨-|


口口口口
口口口口
口口口口
|⑩-⑪-|

口口口口
口口口口
口口口口
口口口
33
口 |①-②-③-④--⑤--|
口 |⑥-⑦-|
|⑧-⑨-|
⑧口

口口口口
口口口口
口口口口
|⑩-⑪-|

口口口口
口口口口
口口口口
口口口
34
|①--②③④|
口口口 |⑤⑥⑦-|

口口

口口

口口口口 |⑧-⑨-|
口口口 |⑩-⑪-|

口口口口
口口口
口口口口
口口口口
35
|①-②-③-④--⑤--|
|⑥-⑦⑧|
|⑨--⑩-⑪-⑫-⑬--|



口口口口
口口口口
口口口口 |⑭-⑮-|

口口口
口口口口
口口口口
口口口口
36
口 |①②③④|
口①口 |⑤⑥⑦-|
口口 |⑧-⑨-|


口口口口
口口口口
口口口口
|⑩-⑪-|

口口口口
口口口口
口口口口
口口口
37
口口 |①②③④|
口口 |⑤⑥⑦⑧|
口口⑧⑦
口口⑥⑤

口口口口
⑩⑨口口
口口 |⑨⑩⑪-|
|⑫-⑬-|

口口口口
口口口口
口口口口
口口口
38
①口 |①-②-|
口口口 |③-④⑤|
口口
口③口③

口口
⑥口口⑧
⑧口⑩ |⑥⑦-⑧|
口口⑦口 |⑨-⑩-|
39
口 |①-②-|
⑫口 |③-④⑤|
口⑩ |⑥⑦⑧⑨|
③⑪⑥① |⑩⑪⑫-|
40
|①--②③④|
口口口⑦ |⑤⑥⑦⑧|
⑧②③⑩ |-⑨-⑩|
④口⑪⑤ |⑪-⑫-|
41
口口 |①-②-|
口④ |③-④-|
③口 |⑤--⑥|
③⑦⑤① |⑦-⑧-|
42
① |①--②--③-④-⑤-|
口 |⑥⑦⑧-|

⑥口口⑦


口口口
口口口口 |⑨⑩⑪⑫|
口⑩⑪口 |⑬-⑭-|
43
口口口 |①-②-|
③③口口 |③-④⑤|
口口②口
①口

口⑥
口口
口⑨ |⑥⑦⑧⑨|
口口口 |⑩-⑪-|
44
口口③ |①-②③|
口⑤ |④-⑤-|
口口④
口口口


口口
口口 |⑥⑦⑧⑨|
口口⑥ |⑩-⑪-|
45
口 |①-②-|
⑤⑨⑩⑥ |③-④-|
|⑤⑥⑦⑧|
①口口③ |⑨⑩⑪⑫|
46
|①-②③|
⑧口口口 |④⑤⑥⑦|
口口口口 |⑧-⑨-|
①④⑤⑨

口口口

口口口口
口口口口 |⑩--⑪|
47
口 |①②③④|
|⑤-⑥⑦|
|⑧⑨⑩-|



口口口口
口口口口
口口口口 |⑪---|
48
|①②③④|
口口 |⑤-⑥-|
口口 |⑦-⑧-|
口⑨⑦ |⑨-⑩-|
49
口口口 |①-②③|
口口 |④⑤⑥-|
口口
口口口

口口

口口口 |⑦-⑧-|
⑧口口口 |⑨--⑩⑪⑫|
50
|①②③④|
口口口 |⑤-⑥⑦|
口④ |⑧⑨⑩-|
⑩⑥

口口口口
口口口口
口口
|⑪-⑫-|
51
|①-②-③-④--⑤--|
口⑥①② |⑥-⑦-|
口口 |⑧-⑨-|
口口口


口口口口
口口口口
口口口 |⑩-⑪-|
52
口口 |①-②③|
|④⑤⑥-|
②口④
口口口口

口口口
口口
口口口口 |⑦-⑧-|
⑨口口⑧ |⑨--⑩|
53
口口 |①-②③|
口⑤ |④-⑤-|
口① |⑥⑦⑧-|
|⑨---|
54
口口口 |①-②-|
②口口口 |③④--|
③口口口
④①④

口⑤口
⑦口
口⑥口口 |⑤--⑥|
口口⑥口 |--⑦-|
55
口④口 |①②③-|
口口 |④⑤--|
口口
口口

口口口口
口⑥
口⑨口口 |⑥--⑦|
⑥口口⑦ |--⑧⑨|
56
口⑤口 |①-②-|
口口口口 |③④⑤-|
口口口④
口③①口

口口⑧
口口
⑥口口口 |⑥--⑦|
⑦口口⑦ |--⑧-|
57
口⑪ |①②③-|
|④⑤⑥⑦|
|⑧⑨⑩⑪|
⑥口 |⑫-⑬-|
58
口 |①-②-|
⑧④口 |③④--|
⑧⑦②口 |⑤⑥-⑦|
口①⑦④ |--⑧-|
59
口③① |①-②-|
口口口口 |③④--|
口口①②
口口口口

口口口口
口⑤
口口口 |⑤--⑥|
⑤口⑥ |-⑦⑧-|
60
口 |①-②-|
口口口口 |③④⑤-|
口口口④
口③口口

口口
口口
⑥口口口 |⑥--⑦|
⑦⑩口⑦ |-⑧⑨⑩|
61
口 |①②③-|
口口口 |④⑤⑥-|
口口④口
口口①⑥

口⑨口口
口⑨
口口口⑦ |⑦--⑧|
⑦口口口 |⑨---|
62
①口 |①-②-|
口口口 |③-④⑤|
口口
口③口③

口口
⑥口口⑧
⑧口⑩ |⑥⑦-⑧|
口口⑦口 |⑨-⑩-|
63
口 |①-②-|
⑫口 |③-④⑤|
口⑩ |⑥⑦⑧⑨|
③⑪⑥① |⑩⑪⑫-|
64
|①-②③|
⑨口口③ |④-⑤-⑥-⑦--⑧--|
⑥⑦⑪ |⑨⑩-⑪|
④口⑫⑤ |⑫-⑬-|
65
口口 |①-②③|
口口口 |④-⑤-|
口口
口①

口口
⑥⑦口口
口口 |⑥⑦⑧⑨|
⑫口口口 |⑩⑪⑫-|
66
口口 |①②-③|
|④-⑤⑥|
|⑦⑧⑨⑩|
⑦ |⑪⑫⑬⑭|
67
|①②③④--|
②③ |⑤⑥⑦⑧|
⑪口⑨⑩ |⑨⑩-⑪|
口⑫⑧⑦ |⑫-⑬-|
68
|①-②③|
|④-⑤⑥|
口 |⑦⑧-⑨|
①口口⑧ |⑩-⑪-|
69
⑤⑤ |①②③④|
|⑤-⑥⑦|
|⑧⑨⑩⑪|
③②⑧ |⑫⑬⑭-|
70
口① |①-②-|
口口④口 |③-④⑤|
④口②口
①⑤口③


口口口口
口⑥口⑧ |⑥⑦-⑧|
口口⑨口 |⑨-⑩-|
71
口口 |①-②-|
口口 |③-④⑤|
③口口口
①口口②

口口
口口⑩⑦
口⑥ |⑥⑦⑧⑨|
口口口 |⑩⑪⑫-|
72
|①--②--③-④-⑤-|
③④口 |⑥⑦⑧⑨|
|⑩⑪-⑫|
⑨⑧ |⑬-⑭-|
73
|①②③④|
口口 |⑤-⑥-|
口口口
口口口口

口口口
口口⑦⑧
口口⑨⑩ |⑦⑧⑨⑩⑪⑫|
口⑭⑪⑫ |⑬-⑭-|
74
口口 |①--②--③-④-⑤-|
③④⑤⑥ |⑥⑦⑧⑨--|

口口口口


口口口口
口口口口 |⑩⑪⑫⑬|
口⑫⑮⑪ |⑭-⑮-|
75
口口口 |①②③④⑤⑥|
④③②① |⑦-⑧⑨|

⑨口口口


口口口
口口口 |⑩⑪⑫⑬|
口⑬⑭⑩ |⑭⑮⑯⑰|
76
口口口 |①-②③|
口 |④-⑤⑥|
口①
④口口口

口口口
口口
口⑪口口 |⑦⑧-⑨|
口口⑦⑧ |⑩-⑪-|
77
⑫ |①-②-|
⑥⑦口 |③-④-|
⑩⑨⑧口 |⑤⑥⑦⑧⑨⑩⑪⑫|
口④③口

口口口口

口口口口
口口口口 |⑬-⑭-|

口口口口
口口口
口口口口
口口口口
78
口口口口 |----|
口口口口 |----|
口口口口 |----|
口口口口 |----|
79
口口口口 |----|
口口口口 |----|
口口口口 |----|
口口口口 |----|

不確定度: 0

最終更新:2022年02月23日 11:12