Lisa-RICCIA (BEMANI SYMPHONY Arr.)
DJ YOSHITAKA × onoken + gaQdan

EXTREME

Level: 10.2
BPM: 178
Notes: 839 (35)

BPM: 178
1
口口口口 |----|
口口口口 |----|
口口口口 |----|
口口口口 |----|
2
口①口口 |①---|
①①①① |----|
口①口口 |----|
口①口口 |----|
3
③②③口 |--①-|
②①②口 |----|
③②③口 |②---|
口口口口 |③---|
4
口口口口 |①---|
口②口① |②---|
口口口口 |----|
口①口口 |----|
5
②口③口 |--①-|
口口口口 |--②-|
②口③① |③--④|
④口①⑤ |--⑤-|
6
口②口口 |①---|
②①②② |②---|
口②口口 |----|
口②口口 |----|
7
①④①④ |--①-|
⑤口⑤口 |--②-|
③口③口 |--③-|
口②口② |④-⑤-|
8
③④①⑤ |①---|
口②口口 |②-③-|
口口口口 |----|
③④①⑤ |④-⑤-|
9
口口③⑤ |--①-|
①①口口 |--②-|
②②口口 |③-④-|
口口④⑥ |⑤-⑥-|
10
⑤④口口 |①-②-|
③②⑥口 |③-④-|
口⑦口口 |⑤-⑥-|
①口⑧口 |⑦-⑧-|
11
③口口④ |--①-|
⑤②口口 |②-③-|
①口口⑥ |④-⑤-|
⑦口口口 |⑥-⑦-|
12
口口④⑤ |①-②-|
口⑥②③ |③-④-|
口口⑦口 |⑤-⑥-|
口⑧口① |⑦-⑧-|
13
④口口③ |--①-|
口口②⑤ |②-③-|
⑥口口① |④-⑤-|
口口口⑦ |⑥-⑦-|
14
口⑦③⑤ |①-②-|
④②⑥口 |③-④-|
口口口口 |⑤-⑥-|
①⑦③⑧ |⑦-⑧-|
15
②口④⑥ |--①-|
⑤③口口 |②-③-|
口口①口 |④-⑤-|
②⑦口⑥ |⑥-⑦-|
16
⑤③⑥⑧ |①-②-|
⑦口④④ |③-④-|
①①②⑧ |⑤-⑥-|
⑦口口口 |⑦-⑧-|
17
口⑤⑤口 |--①-|
口②⑦口 |②-③-|
④①①口 |④-⑤-|
口口③⑥ |⑥-⑦-|
18
①⑥⑥③ |①-②-|
①④口⑧ |③-④-|
⑦②③④ |⑤-⑥-|
⑤口⑧口 |⑦-⑧-|
19
②口口口 |①-②-|
④口口口 |③-④-|
口①③④
口②口③

口⑤⑦⑦
口⑤⑤口
⑥⑦口口 |⑤--⑥|
口口⑥口 |--⑦-|
20
②④⑧⑧ |①-②-|
④⑦⑦③ |③-④-|
口口⑥③ |⑤-⑥-|
①①口⑤ |⑦-⑧-|
21
⑤⑤⑦⑦ |①-②-|
⑦⑥口④ |③-④-|
③②⑤④ |⑤--⑥|
②③①⑥ |--⑦-|
22
⑧口⑧口 |①-②-|
⑦⑥①④ |③-④-|
③①⑥④ |⑤-⑥-|
②③⑤口 |⑦-⑧-|
23
⑦⑤⑦⑥ |①-②-|
口⑤②⑥ |③-④-|
③④口④ |⑤-⑥-|
①③口② |--⑦-|
24
口⑤口⑤ |--①-|
②⑥①口 |②-③-|
口④⑥③ |④-⑤-|
④②③① |--⑥-|
25
口③④口 |--①-|
①口②④ |②---|
⑤口口③ |③-④-|
口⑤⑥⑥ |⑤-⑥-|
26
①⑥⑥③ |①-②-|
①④口⑧ |③-④-|
⑦②③④ |⑤-⑥-|
⑤口⑧口 |⑦-⑧-|
27
②口口口 |①-②-|
④口口口 |③-④-|
口①③④
口②口③

口⑤⑦⑦
口⑤⑤口
⑥⑦口口 |⑤--⑥|
口口⑥口 |--⑦-|
28
②④⑧⑧ |①-②-|
④⑦⑦③ |③-④-|
口口⑥③ |⑤-⑥-|
①①口⑤ |⑦-⑧-|
29
⑤⑤⑦⑦ |①-②-|
⑦⑥口④ |③-④-|
③②⑤④ |⑤--⑥|
②③①⑥ |--⑦-|
30
⑧口⑧口 |①-②-|
⑦⑥①④ |③-④-|
③①⑥④ |⑤-⑥-|
②③⑤口 |⑦-⑧-|
31
⑦⑤⑦⑥ |①-②-|
口⑤②⑥ |③-④-|
③④口④ |⑤-⑥-|
①③口② |--⑦-|
32
口⑤口⑤ |--①-|
②⑥①口 |②-③-|
口④⑥③ |④-⑤-|
④②③① |--⑥-|
33
口口口口 |--①-|
①④②口 |②---|
口口口口 |----|
③口口口 |③-④-|
34
口①①① |①---|
②⑤⑤口 |②-③-|
口口口口 |--④-|
口③③④ |--⑤-|
35
②③②② |①---|
⑤口口口 |②---|
①④④④ |③---|
口③③口 |④-⑤-|
36
口口②口 |①---|
口①①① |②-③-|
口口口口
③③口③

⑤口口⑤
口口口⑤
口口口④ |--④-|
口口口口 |--⑤-|
37
口⑥⑥口 |--①-|
①④④⑦ |②-③-|
口②②口 |④-⑤-|
⑤口③口 |⑥-⑦-|
38
口口口口 |①-②-|
⑦⑤口⑦ |③-④-|
①②③① |⑤---|
口④④⑥ |⑥-⑦-|
39
①⑥⑥⑤ |①---|
口④④口 |②-③-|
口②②口 |④-⑤-|
③口口⑦ |⑥-⑦-|
40
⑥⑥⑥⑥ |①-②-|
⑤口口⑤ |③-④-|
④②③④ |--⑤-|
口①①口 |--⑥-|
41
口口口口 |----|
口口口口 |----|
口②口口 |----|
①口口口 |①-②-|
42
口口⑤① |①---|
②③口口 |②-③-|
口口口口 |--④-|
口口④口 |--⑤-|
43
口口口④ |--①-|
①⑤口口 |②-③-|
口②③口 |④--⑤|
口口口⑥ |--⑥-|
44
⑤口④口 |①---|
②口口口 |②-③-|
口③口口 |--④-|
①口口口 |--⑤-|
45
口口口④ |--①-|
⑤口口① |②-③-|
口口②⑥ |④--⑤|
口③口口 |--⑥-|
46
①口口口 |①---|
口④口口 |②-③-|
口口口口 |--④-|
⑤口③② |--⑤-|
47
口⑤口① |--①-|
口口②⑥ |②-③-|
口③口④ |④-⑤-|
口口口口 |--⑥-|
48
口口⑤口 |--①-|
口④口口 |②-③-|
①口口口 |④-⑤-|
⑥②③口 |--⑥-|
49
口口口口 |--①-|
口口②① |②---|
口⑤⑥口 |③-④-|
口③④口 |⑤-⑥-|
50
口口①① |①---|
②③口口 |②-③-|
口口口口
口口口口

④口⑦口
口口口口
⑥口口口 |④-⑤-|
口口⑤口 |⑥-⑦-|
51
口口口⑤ |①-②-|
②⑥⑦① |③-④-|
口③④口 |⑤--⑥|
口口口⑧ |⑦-⑧-|
52
⑦口⑤口 |①---|
②④⑥口 |②-③-|
口③口口 |④-⑤-|
①口口口 |⑥-⑦-|
53
口口⑦⑤ |①-②-|
⑥口口② |③-④-|
①口③⑧ |⑤--⑥|
口④口口 |⑦-⑧-|
54
①⑨⑫⑯ |①②③④|
⑬⑤④⑧ |⑤⑥⑦⑧|
⑮③⑥⑭ |⑨⑩⑪⑫|
⑦⑪⑩② |⑬⑭⑮⑯|
55
①⑨⑩口 |①②③④|
口⑤④⑧ |⑤⑥⑦⑧|
⑪③⑥⑪ |⑨-⑩-|
⑦⑨⑩② |--⑪-|
56
⑤口口④ |----|
口口③口 |①-②-|
口②口⑥ |③-④-|
①口⑥口 |⑤-⑥-|
57
口口口口 |--①-|
口①口口 |②---|
口口口口 |----|
口②口口 |----|
58
口口口口 |(178)----|
口口口口 |(170)----|
口口口口 |(165)----|
口口口口 |(160)----|
59
⑥①⑦① |(155)①-②-|
口⑤口口 |(149)③-④-|
口②④口 |(142)⑤-⑥-|
⑧⑧口③ |(136)⑦-⑧-|
60
口口口口 |(134)--①-|
口①口④ |(132)②---|
口口②口 |----|
口③口口 |③-④-|

BPM: 132
61
口 |①---|
口口口口
①口口口
口口口口

口口②
口口口口 |②-③-|

口口口口

口口口口
口口
|--④-|
口口

口口⑤⑤
口口
口口口口
口口口口 |--⑤-|
62
口口口口 |--①-|
①口口口 |②-③-|
口口②口
口③口口


口口口口
口口口口 |④--⑤|
口口口口

口口口

口口口口
口口口口

口口口口
口口

口口口口 |--⑥-|
63
口口②口 |①---|
口口口口 |②-③-|
口口
口③①①

口口口口
口口④口
口④口口 |--④-|
口口口口

口口口口


口口口口 |--⑤-|
64
口②①口 |--①-|
口口 |②-③-|
口口
口①③口


口口口口
口口口口 |④--⑤|
口口口口

口口口

口口口口
口口口口

口口口口
口口口

口口口口 |--⑥-|
65
口口口② |①---|
③口口口 |②-③-|
口口②
③①①口

口口④口
口口口口
口口口口 |--④-|
口④口口




口 |--⑤-|
66
口③ |--①-|
②口①口 |②-③-|
口①口③
口口

口⑥口口
口口口口
④口⑤口 |④-⑤-|
口④⑥⑤ |--⑥-|
67
①口口② |--①-|
口①②⑤ |②-③-|
口③④口 |④-⑤-|
③⑤口④


口口口口

口口口口 |--⑥-|
68
口口口 |--①-|
口②①口 |②---|
口口口
口口口口

口⑤口口
口口⑥口
口口④口 |③-④-|
口③口口 |⑤-⑥-|
69
口 |①---|
口口口口
①口口口
口口口口

口口②
口口口口 |②-③-|

口口口口

口④口口
口口
|④-⑤-|
口口

口口⑦⑦
⑥口
口口口口
口口口口 |⑥-⑦-|
70
口口口口 |①-②-|
②口口口 |③-④-|
口①③口
口④口口


口口口⑤
口口口口 |⑤--⑥|
口口口口

口口口

口口口口
口口口口

口口口口
口口

口口口口 |⑦-⑧-|
71
口口②口 |①---|
口口口口 |②-③-|
口口
口③①①

口④口口
④口⑤口
口⑤口口 |④-⑤-|
口口口口

⑥口口口


口口口口 |⑥-⑦-|
72
口②①口 |--①-|
口口 |②-③-|
口口
口①③口


口口④口
口口口口 |④--⑤|
口口口口

口口口

口口口口
口口口口

口口口口
口口口口
口⑥口口
口口口口 |⑥-⑦-|

口口口口
口口口

口口口口
73
口口口② |①---|
③口口口 |②-③-|
口口②
③①①口

④口⑤口
口④口口
口口口口 |④-⑤-|
口⑤口口

口口口口
口口口口
口口⑥口
口口口口 |⑥-⑦-|





74
口④ |①-②-|
③口②口 |③-④-|
口②口④
口口

口⑧⑤口
口口口⑤
⑤口⑥口 |⑤-⑥-|
⑦⑤⑧⑥ |⑦-⑧-|
75
②⑤口③ |①-②-|
⑤②③⑥ |③-④-|
口④⑤① |⑤-⑥-|
④⑥口⑤


口口口口

口口⑦口 |⑦-⑧-|
76
口③口 |--①-|
口②①③ |②---|
⑤⑤口 |③---|
口口④④ |④-⑤-|
77
口口 |①---|
口口
口口
口口

口②
口口③口 |②-③-|
口口口口
口③口口

口⑦④口
口⑤口④
口⑥⑦口 |④-⑤-|
口口⑤口 |⑥-⑦-|
78
⑦⑤③① |①-②-|
⑤⑦①③ |③-④-|
口口口口 |⑤-⑥-|
②④⑧⑥ |⑦-⑧-|
79
口③口① |①-②-|
④口②口 |③-④-|
口①口③
口口口口

⑦口⑤口
口口⑧⑤
口⑧口口 |⑤-⑥-|
口⑥⑥口 |⑦-⑧-|
80
⑦⑤⑦口 |①-②-|
⑤②口③ |③-④-|
④口②⑥ |⑤-⑥-|
①⑧⑥⑧ |⑦-⑧-|
81
口口口④ |①-②-|
口口③口 |③-④-|
口②口口
①口口口

口口⑤口
⑥口口⑤
口⑧口⑦ |⑤-⑥-|
口口⑦口 |⑦-⑧-|
82
①⑤⑥口 |①-②-|
⑤②③⑥ |③-④-|
口口①口 |⑤-⑥-|
口⑦④⑧ |⑦-⑧-|
83
①口⑤④ |①-②-|
口②③⑤ |③-④-|
①②③④ |⑤-⑥-|
⑥口口口




|⑦-⑧-|
84
口口口口 |----|
口口口口 |----|
口口口口 |----|
|①---|
85
口③①② |①-②-|
①①口① |③-④-|
⑥口①口 |--⑤-|
⑤口①④ |--⑥-|
86
口①口 |--①-|
②口口 |--②-|
口③口 |--③-|
④口口 |④-⑤-|
87
口口口口 |----|
口口口口 |----|
口口口口 |----|
口口口口 |----|
88
口口口口 |----|
口口口口 |----|
口口口口 |----|
口口口口 |----|
89
口口口口 |----|
口口口口 |----|
口口口口 |①---|
口口口 |----|

不確定度: 0

最終更新:2022年03月02日 10:57