さよなら世界 (BEMANI SYMPHONY Arr.)
猫叉Master Arranged by ござ

EXTREME

Level: 9.2
BPM: 104-120
Notes: 633

BPM: 105
1
口口口口 |----|
口口口口 |----|
口口口口 |----|
口口口口 |----|

口口口口 |----|
口口口口 |----|
口口口口
口口口口
2
①口口① |①---|
口口①口 |----|
口①口口
口口口口

口②口口
口口②口
②口口② |----|
口口口口 |②---|

口口口口 |----|
口口口口 |----|
口口口口
口口口口
3
③口口口 |①---|
①③③口 |----|
③口口① |②---|
②①①口 |③---|

口口⑤口 |④---|
口口口口 |⑤---|
口口口④
口口口口
4
①口口① |①---|
口口①口 |----|
口①口口
口口口口

口②口口
口口②口
②口口② |----|
口口口口 |②---|

口口③口 |----|
口口口口 |③---④-|
口口④口
口口口口
5
③口②③ |①---|
口口③① |----|
①口口口 |---②|
口①①口 |③---|

口口口口 |----|
口口口口 |----|
口口口口
口口口口
6
口口口① |①---|
口口口口 |②---|
口①①口
①口口②

口口④口
④口③口
口④口④ |③---|
口口口口 |④---|

口口口口 |⑤---|
口口口⑥ |⑥---|
口口口口
口口⑤口
7
口口①① |①---|
口口口口 |----|
①口口口
口①口口

口口②口
口④口④
④口③口 |②---③-|
②口④口 |④---|

口口口口 |----|
口口口口 |----|
口口口口
口口口口
8
①②③④ |①---|
口口①口 |----|
④①口① |--------------②③|
口④口口 |④---|

口口口口 |----|
口口口口 |----|
口口口口
口口口口
9
口口口口 |----|
口口口口 |----|
口口口口 |----|
口口口口

BPM: 120
10
口口口口 |①---|
口口口① |②---③-|
口③②口
①①①口

⑥口口口
④⑤④⑥
⑥口口口 |④---⑤-|
口口⑥口 |⑥---|

口口⑧口 |⑦---|
口口口口 |⑧---|
口⑦口⑦
⑧口口口
11
口口口① |①---|
①②口口 |②---③-|
口口①口
③①口口

⑥⑥口口
⑤口⑥口
口④口口 |④---⑤-|
口口口⑥ |⑥---|

口口口口 |⑦---|
口⑦口口 |⑧---|
⑦口口⑧
口口口口
12
口口口口 |①---|
①③口① |②---③-|
口①②口
口口①口

④⑥口口
⑤口④⑥
口⑥口口 |④---⑤-|
口口⑥口 |⑥---|

口口⑧口 |⑦---|
口口口口 |⑧---|
⑦口口⑦
口口口口
13
口②口① |①---|
①口口口 |②---③-|
口口①口
①③口口

⑥口口口
⑤⑥⑥口
口④口口 |④---⑤-|
口口口⑥ |⑥---|

口口⑧口 |⑦---|
口口口口 |⑧---|
口口口⑦
口口口口
14
口②口口 |①---|
口③口① |②-③-④-|
①④口口
口①①口

口口口口
⑤口口⑧
⑥口⑧⑦ |⑤-⑥-⑦-|
⑦⑧口口 |⑧---|

⑪口⑪⑨ |⑨---⑩-|
口⑪⑨口 |⑪---|
⑩口口⑪
口口口口
15
口①口口 |①---|
②口口① |②---③-|
③①①口
口②口口

口口④口
口④口口
口口⑤④ |④---⑤-|
⑤口口口
16
①②口② |①---|
③口③① |②-③-|
口④口④ |④---|
口口口①
17
口④①口 |①-②-③-|
口②口⑤ |④-⑤-⑥-|
口⑥③口
①①口口

⑧口口⑦
⑨⑩⑪口
⑫口口⑪ |⑦-⑧-⑨⑩|
口⑬口口 |⑪-⑫-⑬-|

口口口⑰ |⑭-⑮-⑯-|
口口口⑭ |⑰---⑱-|
⑱⑮⑭口
⑯口口口
18
口④①口 |①-②-③-|
②口①⑤ |④-⑤-⑥-|
口⑥③①
口口口口

口口口⑦
口⑧⑩口
⑫口口口 |⑦-⑧-⑨-|
⑨⑪口⑩ |⑩-⑪-⑫-|

口口⑯口 |⑬-⑭-⑮-|
⑮⑰口⑬ |⑯-⑰-⑱-|
口⑭⑯口
⑱口⑬口
19
④口口① |①-②-③-|
口口①口 |④-⑤-⑥-|
②口⑤①
口⑥③口

口⑩⑦口
⑩⑧口口
口⑩口⑪ |⑦-⑧-⑨-|
⑫口口⑨ |⑩-⑪-⑫-|

⑯口口口 |⑬-⑭-⑮-|
口⑯口⑬ |⑯-⑰---|
⑭口⑬口
口⑰⑮口
20
口②口① |①-②-③-|
③口①④ |④-⑤-⑥-|
⑤口口①
口⑥口口

口口⑦口
⑩⑩口口
口⑧口⑩ |⑦-⑧-⑨-|
⑨口⑩口 |⑩---|

口口⑬口 |⑪---⑫-|
口口口⑬ |⑬---|
⑬口⑪口
口⑫口口
21
口口口① |①---|
②①①口 |②---③-|
口③口口
①口口口

口口口口
口口⑦口
⑦口④口 |④-⑤-⑥-|
⑦⑥⑤⑦ |⑦---|

口⑧口口 |⑧---⑨-|
口⑫⑪⑧ |⑩-⑪-⑫-|
口⑨⑩口
口口口口
22
口②①口 |①---|
①口④口 |②---|
①④口① |③---|
③口口口 |④---|

口口口⑥ |⑤---|
⑤⑥口口 |⑥---|
口口口口
⑥⑤口口
23
①口①口 |①---|
口口口① |②-③-④-|
①口口口
口④③②

口口口口
口⑧口⑧
⑦⑥⑤⑧ |⑤-⑥-⑦-|
口口口口 |⑧---|

口口⑩口 |⑨---|
口口口口 |⑩---|
口口口口
口⑨口口
24
口①口① |①---|
口口①口 |----|
口①②口 |----|
①②①② |②---|

口口④口 |③---|
③④③④ |④---|
口③口口
口口口口
25
①口口① |①---|
口口②口 |②---③-|
①口口①
③口②口

口⑦口⑦
口⑥口④
⑤口④⑦ |④-⑤-⑥-|
口口口④ |⑦---|

口口口口 |⑧---|
⑧⑩⑧⑨ |⑨---⑩-|
口口口口
口⑨⑧⑨
26
①口①口 |①---|
口口②口 |②---③-|
①口①口
口③②口

⑦口⑤⑦
口⑥口④
⑦④口⑦ |④-⑤-⑥-|
口口口④ |⑦---|

口口⑪口 |⑧---⑨-|
口口口口 |⑩---⑪-|
口⑩口口
口⑧⑧⑨
27
口⑤口口 |①-②-③-|
⑥口①④ |④-⑤-⑥-|
口口③①
①②口口

口口⑧口
口口口口
⑨⑦⑩口 |⑦---⑧-|
口⑨⑨口 |⑨---⑩-|

口⑬⑭口 |⑪---⑫-|
⑬⑫⑪⑭ |⑬---⑭-|
口口口⑪
⑪口口⑬
28
口口口口 |①-②-③-|
口⑤⑥口 |④-⑤-⑥-|
口④③口
口①②口

口口⑦⑧
口口口⑨
口口⑩口 |⑦-⑧-⑨-|
口⑩口⑩ |⑩---|

口口⑫口 |⑪---|
⑪⑫⑪⑫ |⑫---|
口⑪口口
口口口口
29
①口口① |①---|
口口②口 |②---③-|
①口口①
③口②口

⑥⑦⑧⑨
⑪口口④
口④⑤口 |④-⑤⑥⑦⑧|
口⑩口④ |⑨-⑩-⑪-|

口口口口 |⑫-⑬-⑭-|
口⑭⑫⑮ |⑮---|
口口口口
⑬口⑫⑮
30
口①口① |①---|
②③②口 |②---③-|
口①口①
②口②口

④口④口
口口口⑦
⑥⑦④口 |④-⑤-⑥-|
口⑤口⑦ |⑦---|

口口⑩口 |⑧---|
⑨口口口 |⑨---⑩-|
口口口口
⑧口⑧口
31
④口口③ |①---②-|
口①②口 |③---④-|
口口①①
口①口口

口口口口
口口口⑥
⑤口口⑦ |⑤---⑥-|
⑦⑦⑦口 |⑦---|

⑧⑨口口 |⑧---|
⑨口⑧⑨ |⑨---|
口⑧⑨口
口口口⑧
32
口口①① |①---|
口①口口 |----|
①口口口
口口口口

口口③口
②口口③
口③口口 |②---|
②口②口 |③---|

口⑤口⑤ |④---|
口④④口 |⑤---|
口口④⑤
口口口口

BPM: 70
33
①口①口 |①---|
口口口① |----|
口口口口 |----|
口口口①

BPM: 102
口口口口
口口口口
口口口口
口②②口 |②---|

④口④口 |③---|
③口口③ |④---|
口④③口
口口口口
34
口口④① |①---|
①②①④ |②---|
④口口口 |③---|
口口③口 |④---|

口口口口 |⑤---|
口口⑤口 |⑥---|
口⑤口⑥
⑥口口口
35
口口口① |①---|
①口①口 |②---|
口①口口
口口②口

口口④口
③口口④
口口④口 |③---|
④口口口 |④---|

口口⑦口 |⑤---|
口口口口 |⑥---⑦-|
⑥口口口
口口口⑤
36
口口口③ |①---②-|
口②①口 |③---|
口④口① |----|
④①口④ |④---|

口⑤⑥口 |----|
口口口口 |----------⑤⑥|
口口口口
口口口口

BPM: 120
37
口口口① |①----②③④|
口口⑪⑩ |⑤--⑥--⑦--⑧--⑨---⑩---⑪---|
⑨⑧⑦⑥
⑤④③②

⑰⑯⑮⑭
⑬⑫口口
口口口口 |⑫⑬⑭⑮⑯⑰|
口口口口

BPM: 90
口口口口
口口口口
口口口口
口口口⑱ |⑱---|

口口口口 |⑲---|
口口口口 |⑳---|
⑲口口口
⑳口⑳口

BPM: 115
38
口口①口 |①---|
口②口① |②---③-|
①口口①
③①口口

口⑦口口
⑦口⑦⑥
口口⑤口 |④-⑤-⑥-|
口④口口 |⑦---|

⑧口⑩口 |⑧---⑨-|
口⑧口口 |⑩---⑪-|
口⑨口口
⑪口口口
39
口口口① |①---|
口②①口 |②---③-|
①口口①
口①口③

口口口口
⑥⑦口口
⑦⑤⑦口 |④-⑤-⑥-|
口口④口 |⑦---|

口⑨⑨⑨ |⑧---⑨-|
口口⑧⑨ |⑩---⑪-|
口⑩口⑨
⑪口口口
40
口口口口 |①---|
口②①口 |②---③-|
①口①口
③①口①

口口口口
口口口⑥
口口⑤口 |④-⑤-⑥-|
口④口口

BPM: 110
口口口口
⑦口⑦口
口⑦口口
口口口口 |⑦---|

⑧⑨⑧⑨ |⑧---|
口口口口 |⑨-⑩-|
口口口口
⑩口口口

BPM: 104
41
口口口口 |①---|
口②口口 |②---③-|
①口口口
口①口③

口口口口
⑥口口口
口⑤口口 |④-⑤-⑥-|
口口④口

BPM: 94
⑧口口口
口口⑦口
口口口口
口口口口 |⑦-⑧-|

BPM: 75
口口口⑩ |⑨-⑩-|
口口口口
口口⑨口
口口口口

BPM: 47
口⑪口口
口口口口 |⑪-(33)⑫-|
口口口⑫
口口口口

BPM: 100
42
②口②① |①---|
口②口② |----|
口口②口 |----|
口口口② |②---|

口口口口 |----|
口口口口 |----|
口口口口
口口口口

不確定度: 0

最終更新:2022年03月02日 10:58