アットウィキロゴ
BLOOD on FIRE
AAA

BASIC

Level: 3
BPM: 155
Notes: 253

1
口口口口 |----|
口口口口 |----|
口口口口 |----|
口口口口 |----|
2
口口口口 |----|
口口口口 |----|
口口口口 |----|
口口口口 |----|
3
口①口口 |①---|
口口②口 |--②-|
口③口口 |--③-|
口口④口 |--④-|
4
口口口口 |----|
口口口口 |--①-|
口口口口 |--②-|
口①②③ |--③-|
5
口口口口 |----|
口口口口 |--①-|
口③②① |--②-|
口口口口 |--③-|
6
③口口口 |--①-|
②口口口 |--②-|
①口口口 |--③-|
口口口口 |----|
7
口①①口 |①---|
口口②口 |--②-|
口③口口 |--③-|
口口④口 |--④-|
8
口口口口 |----|
口口口口 |--①-|
口口口口 |--②-|
口①②③ |--③-|
9
口口口口 |----|
口口口口 |--①-|
口③②① |--②-|
口口口口 |--③-|
10
③口口口 |--①-|
②口口口 |--②-|
①口口口 |--③-|
口口口口 |----|
11
口①①口 |①---|
口②口口 |--②-|
口口③口 |--③-|
口④口口 |--④-|
12
口口①口 |----|
口②口口 |--①-|
口口③口 |--②-|
口口口口 |--③-|
13
口①①口 |----|
口②②口 |--①-|
口③③口 |--②-|
口口口口 |--③-|
14
口口口口 |----|
口①①口 |----|
口口口口 |----|
口口口口 |--①-|
15
口口口口 |----|
口口口口 |----|
口口口口 |----|
口口口口 |----|
16
口口口口 |----|
口③口口 |①---|
口口②口 |②---|
口①口口 |③---|
17
口②①口 |①---|
口口③口 |②---|
口④口口 |③---|
口口口口 |④---|
18
口口口口 |①---|
口口口④ |②---|
口口口③ |③---|
口口①② |④---|
19
④③②① |①---|
口口口口 |②---|
口口口口 |③---|
口口口口 |④---|
20
口口①口 |①---|
口②口口 |②---|
口口③口 |③---|
口④口口 |④---|
21
口④口口 |①---|
口口③口 |②---|
口②口口 |③---|
口口①口 |④---|
22
口口①② |①---|
口口口③ |②---|
口口口④ |③---|
口口口口 |④---|
23
口口口口 |①---|
口口口口 |②---|
口口口口 |③---|
④③②① |④---|
24
①②③口 |①---|
口口口④ |②---|
口口口口 |③---|
口口口口 |④---|
25
口口口口 |①---|
口②①口 |②---|
③④口口 |③---|
口口口口 |④---|
26
口口口口 |①---|
口口口口 |②---|
口口①口 |③---|
口④③② |④---|
27
③口口口 |①---|
②④口口 |②---|
①口口口 |③---|
口口口口 |④---|
28
口口口口 |①---|
口口④口 |②---|
口①③口 |③---|
口②口口 |④---|
29
口口①口 |①---|
口口口② |②---|
口口口③ |③---|
口口口④ |④---|
30
口口口口 |①---|
口口口口 |②---|
④口口口 |③---|
③②①口 |④---|
31
口④④口 |①---|
口③③口 |②---|
口①②口 |③---|
口口口口 |④---|
32
①口口口 |①---|
②口口口 |②---|
③口口口 |③---|
④口口口 |④---|
33
口口口口 |①---|
口口口口 |②---|
口口口④ |③---|
口①②③ |④---|
34
口④③② |①---|
口口口① |②---|
口口口口 |③---|
口口口口 |④---|
35
口口口口 |①---|
口①①口 |②---|
口②②口 |----|
口口口口 |----|
36
口①口口 |①---|
口口②口 |②---|
口③口口 |③---|
口口④口 |④---|
37
口口④口 |①---|
口③口口 |②---|
口口②口 |③---|
口①口口 |④---|
38
口口口① |①---|
口口口② |②---|
口口口③ |③---|
口口口④ |④---|
39
口口口口 |①---|
口口口口 |②---|
口口口口 |----|
口②①口 |----|
40
口口口口 |----|
口①①口 |----|
口口口口 |--①-|
口口口口 |----|
41
口口口口 |----|
口③③口 |①---|
口②②口 |②---|
口①①口 |--③-|
42
口①①② |--①-|
口口口口 |----|
口口口口 |----|
口口口口 |②---|
43
口口口口 |①---|
口口口① |②---|
口口口② |③---|
口口④③ |④---|
44
口口口口 |①---|
口②②口 |----|
口口口口 |--②-|
口①口口 |----|
45
口口口口 |----|
口③③口 |①---|
口②②口 |②---|
口①①口 |--③-|
46
口①①口 |--①-|
口口口口 |----|
口口口口
口口口口

口口②口
口口口口
口口口口 |----|
口口口口 |--②-|
47
口口口① |----|
口口口② |--①-|
口口口口 |----|
口口口口 |--②-|
48
口口口口 |----|
口口口口 |--①-|
口口口① |----|
口口口② |--②-|
49
口口口口 |----|
口口口口 |----|
口口口口 |----|
口口口口 |----|
50
①口口① |①---|
②口口② |②---|
③口口③ |③---|
④口口④ |--④-|
51
口口口口 |----|
口③③口 |①---|
口②②口 |②---|
口①①口 |--③-|
52
②①①口 |--①-|
口口口口 |----|
口口口口 |----|
口口口口 |②---|
53
口口口口 |①---|
①口口口 |②---|
②口口口 |③---|
③④口口 |④---|
54
口口口口 |①---|
口口口口 |----|
口②②口 |--②-|
口口①口 |----|
55
口口口口 |----|
口③③口 |①---|
口②②口 |②---|
口①①口 |--③-|
56
口①①口 |--①-|
口口口口 |----|
口口口口
口口口口

口②口口
口口口口
口口口口 |----|
口口口口 |--②-|
57
①口口口 |----|
②口口口 |--①-|
口口口口 |----|
口口口口 |--②-|
58
口口口口 |----|
口口口口 |--①-|
①口口口 |----|
②口口口 |--②-|
59
口口口口 |----|
口口口口 |----|
口口口口 |----|
口口口口 |----|
60
①口口① |①---|
②口口② |②---|
③口口③ |③---|
④口口④ |--④-|
61
口口口口 |----|
口③③口 |①---|
口②②口 |②---|
口①①口 |--③-|
62
口①①② |--①-|
口口口口 |----|
口口口口 |----|
口口口口 |②---|
63
口口口口 |①---|
口口口① |②---|
口口口② |③---|
口口④③ |④---|
64
口口口口 |①---|
口口口口 |----|
口②②口 |--②-|
口①口口 |----|
65
口口口口 |----|
口③③口 |①---|
口②②口 |②---|
口①①口 |--③-|
66
口①①口 |--①-|
口口口口 |----|
口口口口
口口口口

口口②口
口口口口
口口口口 |----|
口口口口 |--②-|
67
口口口① |----|
口口口② |--①-|
口口口口 |----|
口口口口 |--②-|
68
口口口口 |----|
口口口口 |--①-|
口口口① |----|
口口口② |--②-|
69
口口口口 |----|
口口口口 |----|
口口口口 |----|
口口口口 |----|
70
口④④口 |①---|
③④④③ |②---|
②口口② |③---|
①口口① |--④-|
最終更新:2018年10月16日 02:23