アットウィキロゴ
FREE FREE
鈴木亜美 joins 中田ヤスタカ(capsule)

BASIC

Level: 3
BPM: 131
Notes: 170

1
口口口口 |----|
口口口口 |----|
口①①口 |----|
口口口口 |①---|
2
口②口口 |①---|
口①①口 |②---|
口口口口
口口口口

口口③口
口口④口
口口口口 |③---|
口口口口 |④---|
3
口口口口 |①---|
口口口① |②---|
口③②口 |③---|
口口④口 |④---|
4
口口口口 |①---|
口口口口 |②---|
口口③② |③---|
口④口① |④---|
5
口口口口 |①---|
④口口口 |②---|
③②口口 |③---|
①口口口 |④---|
6
口口口口 |----|
口口口口 |①---|
口③口口 |②---|
口②①口 |③---|
7
口④口口 |①---|
口②③口 |②---|
①口口口 |③---|
口口口口 |④---|
8
①口④口 |①---|
②③口口 |②---|
口口口口 |③---|
口口口口 |④---|
9
口口口① |①---|
口口②③ |②---|
口口口④ |③---|
口口口口 |④---|
10
口口口口 |----|
口口口口 |①---|
口②口口 |----|
①①口口 |②---|
11
口口②② |----|
口口①口 |①---|
口口口口 |----|
口口口口 |②---|
12
口口口口 |----|
口口口口 |①---|
口口②口 |----|
口口①① |②---|
13
②②口口 |----|
口①口口 |①---|
口口口口 |----|
口口口口 |②---|
14
口口口口 |----|
口口③口 |①---|
口②口口 |②---|
①口口口 |③---|
15
口口口① |①---|
口口口② |②---|
口口③口 |③---|
口④口口 |④---|
16
口口口口 |①---|
口口口口 |②---|
口口④② |③---|
口口①③ |④---|
17
②③口口 |①---|
口①口口 |②---|
口口口口 |③---|
口口口口 |----|
18
口口口口 |①---|
①①②② |----|
口口口口 |②---|
口口口口 |----|
19
口口口口 |----|
口口口口 |①---|
①②③口 |②---|
口口口口 |③---|
20
口口口口 |①---|
口口口口 |----|
口口口① |----|
口口口口 |----|
21
口口口口 |①---|
①口②① |----|
口口口口 |----|
口口口口 |②---|
22
口口口口 |①---|
口②口口 |②---|
口③①口 |③---|
口口口口 |----|
23
口口口口 |----|
口口口口 |①---|
口口口口 |②---|
口①②③ |③---|
24
口口④③ |①---|
口口口② |②---|
口口口① |③---|
口口口口 |④---|
25
口口口口 |①---|
口①①口 |----|
口口口口 |----|
口口口口 |----|
26
口口口口 |①---|
口①①口 |----|
口②②口 |②---|
口口口口 |----|
27
③口口口 |----|
②口口口 |①---|
①口口口 |②---|
口口口口 |③---|
28
口①②③ |①---|
口口口口 |②---|
口口口口 |③---|
口口口口 |----|
29
口口口口 |----|
口口口口 |----|
口口口口 |----|
口口①口 |①---|
30
口③口口 |①---|
口口②口 |②---|
口①口口 |③---|
口口口口 |----|
31
口口口口 |----|
③口口③ |①---|
②口口② |②---|
①口口① |③---|
32
①口口① |①---|
口口口口 |----|
口口口口 |----|
口口口口 |----|
33
口口口口 |①---|
口①①口 |----|
口①①口
口口口口

口口口口
口口口口
口②②口 |----|
口口口口 |②---|
34
口口口口 |①---|
口①①口 |--②-|
口口口口
口②口口

口⑤口口
口④口口
口③口口 |③-④-|
口口口口 |⑤---|
35
口口④口 |----|
口口③口 |--①-|
口口②口 |②-③-|
口口①口 |④---|
36
口①口口 |----|
口②口口 |----|
口③口口 |①-②-|
口口口口 |③---|
37
口口口口 |----|
口①①口 |----|
口口口口 |----|
口口口口 |①---|
38
口口口口 |①---|
口口口口 |----|
口①①口
口口口口

口口口口
口口④口
口口③口 |②-③-|
口口②口 |④---|
39
口④口口 |----|
口③口口 |--①-|
口②口口 |②-③-|
口①口口 |④---|
40
口口①口 |----|
口口②口 |----|
口口③口 |①-②-|
口口口口 |③---|
41
口口口口 |----|
口口口口 |----|
口①①口 |----|
口口口口 |①---|
42
口口口口 |①---|
口①①口 |----|
口口口口
口口口口

口口口口
②③④口
口口口口 |②-③-|
口口口口 |④---|
43
口口口口 |----|
口口口口 |--①-|
④③②① |②-③-|
口口口口 |④---|
44
口口口口 |----|
①②③口 |----|
口口口口 |①-②-|
口口口口 |③---|
45
口口口口 |----|
口①①口 |----|
口口口口 |----|
口口口口 |①---|
46
口口口口 |①---|
口④③② |----|
口①①口 |②-③-|
口口口口 |④---|
47
口口口口 |----|
口口口口 |--①-|
①②③④ |②-③-|
口口口口 |④---|
48
口口口口 |----|
口③②① |----|
口口口口 |①-②-|
口口口口 |③---|
49
口口口口 |----|
①口②口 |①---|
口③口④ |②--③|
口口口口 |--④-|
最終更新:2018年10月16日 02:24