アットウィキロゴ
愛は不死鳥の様に
真紅の薔薇の騎士Prim

EXTREME

Level: 10
BPM: 192
Notes: 853

1
口口口口 |----|
口口口口 |----|
口口口口 |----|
口口口口 |----|
2
①口⑥口 |----|
口②口口 |----|
⑤口③口 |①②③④|
口口口④ |⑤-⑥-|
3
口口口口 |①-②-|
口口④① |③-④-|
口①口口
口②③口

⑥⑦口口
口口口口
口⑧口⑤ |⑤-⑥-|
⑤口口口 |⑦-⑧-|
4
口口口口 |①-②-|
①④口口 |③-④-|
口口①口
口③②口

口口⑦⑥
口口口口
⑤口⑧口 |⑤-⑥-|
口口口⑤ |⑦-⑧-|
5
⑦①口⑧ |①-②-|
①口⑥口 |③-④-|
口⑤口② |⑤-⑥-|
⑤③④口 |⑦-⑧-|
6
口②⑤口 |①-②-|
①③⑤口 |③-④-|
①口⑦⑥ |⑤-⑥-|
④口口⑧ |⑦-⑧-|
7
口口口口 |①-②-|
口口④① |③-④-|
口①口口
口②③口

⑥⑦口口
口口口口
口⑧口⑤ |⑤-⑥-|
⑤口口口 |⑦-⑧-|
8
口口口口 |①-②-|
①④口口 |③-④-|
口口①口
口③②口

口口⑦口
口口口⑥
⑤口⑧口 |⑤-⑥-|
口口口⑤ |⑦-⑧-|
9
⑤①口④ |①-②-|
①⑤①⑤ |③-④-|
④⑦⑥② |--⑤-|
⑦④③⑦ |⑥-⑦-|
10
口②口② |--①-|
①⑤③④ |②-③-|
④口口① |--④-|
⑥③⑥⑤ |⑤-⑥-|
11
①口口口 |①-②-|
①口⑧口 |③-④-|
⑤③②④ |⑤-⑥-|
口⑥⑦口 |⑦-⑧-|
12
口③②④ |①-②-|
⑤①口④ |③-④-|
口口口口 |--⑤-|
⑦⑥口口 |⑥-⑦-|
13
③口②⑤ |①-②-|
口④①口 |③-④-|
口⑦口⑥ |⑤-⑥-|
口口⑧口 |⑦-⑧-|
14
口口口口 |①-②-|
④④①口 |③-④-|
②口口口
口口口③

口口口⑤
口口⑦口
口口口口 |--⑤-|
⑥口口口 |⑥-⑦-|
15
⑤③④口 |①-②-|
口⑦口④ |③-④-|
口①口② |--⑤-|
口口口⑥ |⑥-⑦-|
16
口④③⑤ |①-②-|
④口口口 |③-④-|
②口①⑥ |--⑤-|
⑦口口口 |⑥-⑦-|
17
⑥④口⑤ |①-②-|
④①口⑦ |③-④-|
口口②口 |--⑤-|
口口③口 |⑥-⑦-|
18
口④④口 |①-②-|
口④④口 |③-④-|
①②②① |----|
口③③口 |----|
19
②⑤口⑥ |①-②-|
口口④⑦ |③-④-|
⑧③口口 |⑤-⑥-|
①③⑤⑦ |⑦-⑧-|
20
口口④⑥ |①-②-|
口①④⑦ |③-④-|
⑧③②口 |⑤-⑥-|
①③⑤⑦ |⑦-⑧-|
21
口口口口 |①-②-|
口口④口 |③-④-|
口③②①
①③口口

⑤口口口
口⑥口口
⑦口口⑧ |⑤-⑥-|
口口⑤⑦ |⑦-⑧-|
22
口①④④ |①-②-|
②口⑥口 |③-④-|
口⑧③⑦ |⑤-⑥-|
①③⑤⑦ |⑦-⑧-|
23
口⑧③④ |①-②-|
②①⑦④ |③-④-|
口口⑥口 |⑤-⑥-|
①③⑤⑦ |⑦-⑧-|
24
口口③④ |①-②-|
口②⑥④ |③-④-|
①⑦⑧口 |⑤-⑥-|
①③⑤⑦ |⑦-⑧-|
25
口②口口 |①-②-|
口③⑤⑧ |③-④-|
①⑥⑦④ |⑤-⑥-|
①③⑤⑦ |⑦-⑧-|
26
口口口口 |①---|
①口口口 |②---|
①④④口 |③---|
①②③④ |④---|
27
①口口① |①---|
口口口② |----|
口口口口 |----|
②②口口 |②---|
28
⑤口②口 |①---|
①⑥口口 |②-③-|
口③口口 |--④-|
④口①① |⑤-⑥-|
29
⑧⑧⑦口 |①-②-|
⑥口口③ |③-④-|
口⑤①② |⑤-⑥-|
口口④口 |⑦-⑧-|
30
口口口口 |----|
口口口口 |--①-|
口口口口 |----|
口①①口 |----|
31
⑥⑥⑦⑤ |①-②-|
口口④口 |③-④-|
口口③① |⑤-⑥-|
口⑦口② |--⑦-|
32
③口口③ |--①-|
口口口口 |--②-|
①②②① |③---|
口④④口 |④---|
33
口①⑧⑧ |①-②-|
③⑤口口 |③-④-|
②⑥口口 |⑤-⑥-|
④⑦口口 |⑦-⑧-|
34
口①①① |----|
口①①① |----|
口口口口 |----|
口口口口 |①---|
35
口口⑥⑦ |①---|
②⑤口⑦ |②-③-|
④①①① |④-⑤-|
⑥④①③ |⑥-⑦-|
36
①口④口 |①---|
②口④口 |②---|
③口口口 |③---|
④口口口 |④---|
37
口⑤⑦① |①---|
④口⑦② |②-③-|
⑥①③④ |④-⑤-|
口①口⑥ |⑥-⑦-|
38
口口口① |①---|
口口口② |②---|
口口口③ |③---|
口口口④ |④---|
39
口口⑦⑧ |①-②-|
口口①② |③④⑤⑥|
③④⑨⑩ |⑦-⑧-|
⑤⑥⑪⑫ |⑨⑩⑪⑫|
40
③④口口 |①-②-|
⑤⑥①口 |③④⑤⑥|
②口口口
口口口口

口口⑨⑩
口口⑪⑫
口口⑧口 |⑦-⑧-|
⑦口口口 |⑨⑩⑪⑫|
41
③⑤⑫⑭ |①②③④|
⑨⑬⑮⑯ |⑤⑥⑦⑧|
①②⑩⑥ |⑨⑩⑪⑫|
⑪④⑦⑧ |⑬⑭⑮⑯|
42
②②⑥⑦ |①-②-|
⑤⑤⑦口 |③-④-|
①①⑥④ |--⑤-|
口③③④ |⑥-⑦-|
43
②③口口 |①---|
⑦⑦口⑥ |②-③-|
口口⑤④ |④-⑤-|
①②④⑥ |⑥-⑦-|
44
口⑥④④ |①-②-|
口口②⑧ |③-④-|
口③⑦⑧ |⑤-⑥-|
①③⑤⑦ |⑦-⑧-|
45
口口口口 |①-②-|
口②④口 |③-④-|
口③口口
①③口口

⑦口⑤⑥
口口口口
口口口口 |⑤--⑥|
⑦口⑤⑥ |--⑦-|
46
⑧②⑦口 |①②③-|
口①⑥口 |④---|
⑦⑥③③ |⑤-⑥-|
口④⑤⑧ |⑦-⑧-|
47
⑦③口⑥ |--①-|
⑦④口① |②-③-|
口口②口 |④-⑤-|
⑤口口口 |⑥-⑦-|
48
口③③口 |--①-|
口③③口 |②-③-|
②①①② |----|
口②②口 |----|
49
①口④④ |①-②-|
①口口① |③-④-|
口③②口
④口口口

口⑤口口
口⑤⑦⑦
⑦口口⑥ |--⑤-|
口口⑤口 |⑥-⑦-|
50
①⑥③⑥ |--①-|
口④⑤口 |②-③-|
⑤③①④ |--④-|
口②口② |⑤-⑥-|
51
口口口口 |①---|
①口④⑤ |②---|
口口⑥⑦ |③---|
①②③④ |④⑤⑥⑦|
52
口②⑤口 |①--②|
①④口⑥ |③-④-|
口口⑧口 |⑤--⑥|
①③⑤⑦ |⑦-⑧-|
53
口口⑥口 |①--②|
①⑤④⑨ |③-④-|
口②口⑧ |⑤-⑥-|
①③⑤⑦ |⑦⑧⑨-|
54
口口口⑦ |①-②③|
①⑨⑤口 |④-⑤-|
②③⑥⑧ |⑥-⑦-|
①④⑥⑧ |⑧-⑨-|
55
口⑥④口 |①--②|
①口⑦⑧ |③-④-|
口②⑨⑩ |⑤-⑥-|
①③⑤⑦ |⑦⑧⑨⑩|
56
口口④口 |①--②|
①口口⑥ |③-④-|
口②⑧口 |⑤--⑥|
①③⑤⑦ |⑦-⑧-|
57
口①口① |①-②-|
②口④口 |③-④-|
⑤③口④ |--⑤-|
口口⑥⑦ |⑥-⑦-|
58
①②③④ |①②③④|
⑤⑥⑦⑧ |⑤⑥⑦⑧|
⑨⑩⑪⑫ |⑨⑩⑪⑫|
口⑬⑬口 |⑬---|
59
口①①口 |①---|
口口口② |----|
口口口口 |----|
口口③口 |②-③-|
60
口口⑤① |①-②-|
口口⑥⑦ |③-④-|
口口②④ |⑤-⑥-|
口口⑧③ |⑦-⑧-|
61
⑥④口口 |①-②-|
⑧⑦口口 |③-④-|
③⑤口口 |⑤-⑥-|
①②口口 |⑦-⑧-|
62
口②口口 |①---|
口口口① |②-③-|
口③③②
①口口口

④口口④
口④⑤⑤
⑤口口口 |--④-|
口口口口 |--⑤-|
63
口⑦③口 |①---|
口⑦口口 |②-③-|
⑥口④⑤ |④-⑤-|
①②④⑥ |⑥-⑦-|
64
口口口口 |①-②-|
口口③② |③---|
口③口口
①③口口

④⑤口口
④口口口
口口口口 |④---|
⑥口④⑤ |⑤-⑥-|
65
⑨口⑥⑩ |①②③④|
⑪⑦⑧⑫ |⑤⑥⑦⑧|
①③④② |⑨⑩⑪⑫|
⑬⑤口⑭ |⑬-⑭-|
66
口④④口 |①-②-|
口④④口 |③-④-|
①②②① |----|
口③③口 |----|
67
口口②③ |----|
①①③口 |----|
口口②口 |--①-|
口口口口 |②-③-|
68
②③口口 |①---|
⑦⑦口⑥ |②-③-|
口口⑤④ |④-⑤-|
①②④⑥ |⑥-⑦-|
69
口⑥④④ |①-②-|
口口②⑧ |③-④-|
口③⑦⑧ |⑤-⑥-|
①③⑤⑦ |⑦-⑧-|
70
口口口口 |①-②-|
口②④口 |③-④-|
口③口口
①③口口

⑦口⑤⑥
口口口口
口口口口 |⑤--⑥|
⑦口⑤⑥ |--⑦-|
71
⑧②⑦口 |①②③-|
口①⑥口 |④---|
⑦⑥③③ |⑤-⑥-|
口④⑤⑧ |⑦-⑧-|
72
口④⑧⑧ |①-②-|
②③⑥⑤ |③-④-|
口⑦口口 |⑤-⑥-|
①③⑤⑦ |⑦-⑧-|
73
口口⑥口 |--①-|
口①⑦⑤ |②-③-|
口口②④ |④-⑤-|
③③口口 |⑥-⑦-|
74
⑦⑦口口 |①②③④|
①②口口 |⑤⑥⑦-|
口③④口
口口⑤⑥

口口⑧⑨
⑫口⑩⑪
⑫口口口 |--⑧⑨|
口口口口 |⑩⑪⑫-|
75
⑤⑤⑧⑦ |--①②|
口⑥⑥口 |③④⑤-|
⑦⑧①② |--⑥-|
口口③④ |⑦-⑧-|
76
口口口口 |①---|
①口④⑤ |②---|
口口⑥⑦ |③---|
①②③④ |④⑤⑥⑦|
77
口②⑤口 |①--②|
①④口⑥ |③-④-|
口口⑧口 |⑤--⑥|
①③⑤⑦ |⑦-⑧-|
78
口口⑥口 |①--②|
①⑤④⑨ |③-④-|
口②口⑧ |⑤-⑥-|
①③⑤⑦ |⑦⑧⑨-|
79
口口口⑦ |①-②③|
①⑨⑤口 |④-⑤-|
②③⑥⑧ |⑥-⑦-|
①④⑥⑧ |⑧-⑨-|
80
口⑥④口 |①--②|
①口⑦⑧ |③-④-|
口②⑨⑩ |⑤-⑥-|
①③⑤⑦ |⑦⑧⑨⑩|
81
口口④口 |①--②|
①口口⑥ |③-④-|
口②⑧口 |⑤--⑥|
①③⑤⑦ |⑦-⑧-|
82
④①④① |①-②-|
②口③口 |③-④-|
口口口②
口③口口

口⑦口口
口口口⑥
口⑤口口 |--⑤-|
⑥口⑦⑤ |⑥-⑦-|
83
④口②① |--①-|
①①③⑤ |--②-|
②③②④ |--③-|
⑤口口口 |④-⑤-|
84
口⑧⑦⑥ |----|
口口口⑤ |----|
口口口④ |①②③④|
口①②③ |⑤⑥⑦⑧|
85
③口口口 |①-②-|
③②①口 |③-④-|
④②①口 |----|
④口口口 |----|
最終更新:2019年08月23日 19:57