アットウィキロゴ
le mirage
Vivian

BASIC

Level: 3
BPM: 160
Notes: 249

1
口口口口 |----|
口口口口 |----|
口口口口 |----|
口口口口 |----|
2
口口口口 |①---|
口①①口 |----|
口口口口 |----|
口口口口 |----|
3
口口口口 |①---|
口口口口 |----|
口①①口 |----|
口口口口 |----|
4
口口口口 |①---|
①口口① |----|
口口口口 |----|
口口口口 |----|
5
口口口口 |①---|
口口口口 |----|
①口口① |----|
口口口口 |----|
6
口口口口 |①---|
口口口口 |----|
口口②口 |②---|
口口①口 |----|
7
口口②口 |①---|
口口①口 |----|
口口口口 |②---|
口口口口 |----|
8
口①口口 |①---|
口②口口 |----|
口口口口 |②---|
口口口口 |----|
9
口口口口 |①---|
口口口口 |----|
口①①口 |----|
口口口口 |----|
10
口口口口 |①---|
口①①口 |----|
口口口口 |----|
口口口口 |----|
11
口口口口 |①---|
口口口口 |----|
口①①口 |----|
口口口口 |----|
12
口口口口 |①---|
口①①口 |----|
口②②口 |②---|
口口口口 |----|
13
口口口口 |①---|
口口口口 |----|
口口口口 |②---|
②①①② |----|
14
口口口口 |①---|
口③②① |②---|
口口口口 |③---|
口口口口 |----|
15
口①①口 |①---|
口口口口 |----|
口口口口 |----|
口口口口 |----|
16
口口口口 |①---|
①②③口 |②---|
口口口口 |③---|
口口口口 |----|
17
口①①口 |①---|
口口口口 |----|
口口口口 |----|
口口口口 |----|
18
口口口口 |①---|
口①①口 |----|
口①①口 |----|
口口口口 |----|
19
口口口口 |①---|
①口口① |----|
口口口口 |----|
口口口口 |----|
20
口口口口 |①---|
口①①口 |----|
口②②口 |②---|
口口口口 |----|
21
口口口口 |①---|
口①①口 |----|
口②②口 |②---|
口口口口 |----|
22
口口口口 |①---|
口口口口 |----|
口口口口 |----|
口①①口 |----|
23
口口口口 |①---|
①口口① |----|
口口口口 |----|
口口口口 |----|
24
口口口口 |①---|
口①①口 |----|
口②②口 |②---|
口口口口 |----|
25
口口口口 |①---|
口②①口 |②---|
口④③口 |③---|
口口口口 |④---|
26
口口口口 |①---|
口口口口 |----|
口口口口 |----|
口①①口 |----|
27
口口口口 |①---|
口口口④ |②---|
口①②③ |③---|
口口口口 |④---|
28
口②②① |①---|
口口口口 |----|
口口口口 |②---|
口口口口 |----|
29
口口口口 |①---|
口②①口 |②---|
口④③口 |③---|
口口口口 |④---|
30
口口口口 |①---|
口口口口 |----|
口口口口 |----|
口①①口 |----|
31
口口口口 |①---|
④口口口 |②---|
③②①口 |③---|
口口口口 |④---|
32
①②②口 |①---|
口口口口 |----|
口口口口 |②---|
口口口口 |----|
33
口口口口 |①---|
口①②口 |②---|
口③④口 |③---|
口口口口 |④---|
34
口口口口 |①---|
口口口口 |----|
口口口口 |----|
口①①口 |----|
35
口口口口 |①---|
口口口口 |----|
口①①口 |----|
口口口口 |----|
36
口①①口 |①---|
口口口口 |----|
口口口口 |----|
口口口口 |----|
37
口口口口 |①---|
②①①② |--②-|
口③③口 |----|
口口口口 |--③-|
38
口口口口 |----|
口口口口 |--①-|
①口口① |----|
口口口口 |----|
39
口口口口 |①---|
④③②① |②---|
口口口口 |③---|
口口口口 |④---|
40
口口口口 |①---|
口口口口 |②---|
①②③④ |③---|
口口口口 |④---|
41
口口口口 |①---|
④③②① |②---|
口口口口 |③---|
口口口口 |④---|
42
口④④口 |①---|
口③③口 |②---|
①②口口 |③---|
口口口口 |④---|
43
①口口① |①---|
②口口② |----|
口口口口 |②---|
口口口口 |----|
44
口口口口 |①---|
口口口口 |----|
①口口① |②---|
②口口② |----|
45
口口口口 |①---|
②①①② |--②-|
口③③口 |----|
口口口口 |--③-|
46
口口口口 |----|
口口口口 |--①-|
①口口① |----|
口口口口 |----|
47
口口口口 |①---|
口口口口 |②---|
口④③口 |③---|
口②①口 |④---|
48
口④③口 |①---|
口②①口 |②---|
口口口口 |③---|
口口口口 |④---|
49
②口口① |①---|
④口口③ |②---|
口口口口 |③---|
口口口口 |④---|
50
口口口口 |①---|
口口口口 |----|
口①①口 |----|
口口口口 |----|
51
口口口口 |①---|
①口口口 |②---|
口②口口 |③---|
口口③口 |----|
52
口口口口 |①---|
口口口口 |②---|
④③②① |③---|
口口口口 |④---|
53
口口口口 |①---|
口口口① |②---|
口口②口 |③---|
口③口口 |----|
54
口口口口 |①---|
口①①口 |----|
口口口口 |----|
口口口口 |----|
55
口口口口 |①---|
①口口口 |②---|
口②口口 |③---|
口口③口 |----|
56
口口口口 |①---|
口口口口 |②---|
④③②① |③---|
口口口口 |④---|
57
口口口口 |①---|
口口口① |②---|
口口②口 |③---|
口③口口 |----|
58
口口口口 |①---|
口①①口 |----|
口口口口 |----|
口口口口 |----|
59
口口口口 |①---|
②①口口 |②---|
③④口口 |③---|
口口口口 |④---|
60
口口口口 |①---|
口口①② |②---|
口口④③ |③---|
口口口口 |④---|
61
口①②口 |①---|
口③④口 |②---|
口口口口 |③---|
口口口口 |④---|
62
口口口口 |①---|
口口口口 |----|
口①①口 |----|
口口口口 |----|
63
口口口口 |①---|
②①①② |----|
口口口口 |②---|
口口口口 |----|
64
口口口口 |①---|
口口口口 |----|
①②②① |②---|
口口口口 |----|
65
口口口口 |①---|
①②②① |----|
①②②① |②---|
口口口口 |----|
66
口口口口 |①---|
①口口① |----|
①口口① |----|
口口口口 |----|
67
口②①口 |①---|
口④③口 |②---|
口口口口 |③---|
口口口口 |④---|
68
口口口口 |①---|
口口口口 |②---|
口②①口 |③---|
口④③口 |④---|
69
④口口④ |①---|
③口口③ |②---|
②口口② |③---|
①口口① |④---|
70
口①①口 |①---|
②③④口 |②---|
口口口口 |③---|
口口口口 |④---|
71
②口口① |①---|
④口口③ |②---|
口口口口 |③---|
口口口口 |④---|
72
口口口口 |①---|
口口口口 |②---|
②口口① |③---|
④口口③ |④---|
73
口④④口 |①---|
口③③口 |②---|
口②②口 |③---|
口①①口 |④---|
74
①口口① |①---|
口口口口 |----|
口口口口 |----|
口口口口 |----|
最終更新:2019年08月24日 17:39