アットウィキロゴ
Asterism
ZUKI

ADVANCED

Level: 7
BPM: 175
Notes: 425

1
口口口口 |----|
口口口口 |----|
口口口口 |----|
口口口口 |----|
2
口口口① |①---|
口②口口 |----|
口口口口 |②---|
口口口口 |----|
3
口口口口 |①---|
口口口口 |----|
口口口① |②---|
口②口口 |----|
4
口口口口 |①---|
口口口口 |----|
口②口口 |②---|
口口口① |----|
5
口口①口 |①---|
口口②口 |②---|
口口③口 |③---|
口口口口 |----|
6
①口②口 |①-②-|
③口④口 |③-④-|
⑤口⑥口 |⑤-⑥-|
⑦口⑧口 |⑦-⑧-|
7
口⑦⑥口 |①-②-|
口③口④ |③-④-|
口口⑤口 |⑤-⑥-|
口①口② |⑦---|
8
①口口口 |①-②-|
口口②口 |③-④-|
③口口口 |----|
口口④口 |----|
9
口口口① |①-②-|
口②口口 |③-④-|
口口口③ |----|
口④口口 |----|
10
口②②口 |①---|
③①①③ |----|
④口口④ |②---③-|
口口口口 |--④---|
11
口口口口 |①---|
口口口口
口口口口
①口口①
12
口口口口 |①--②|
口④③口 |--③-|
口②⑤口 |----|
口口①口 |④--⑤|
13
③口口③ |--①-|
口口口口 |----|
②口口② |②-③-|
口①口口 |----|
14
口口①口 |①--②|
口②⑤口 |--③-|
口④③口 |----|
口口口口 |④--⑤|
15
③①口② |--①-|
⑤口口④ |--②-|
口口口⑥ |③-④-|
口口口口 |⑤-⑥-|
16
口口口口 |①--②|
口③④口 |--③-|
口⑤②口 |----|
口①口口 |④--⑤|
17
③口口③ |--①-|
口口口口 |----|
②口口② |②-③-|
口口①口 |----|
18
口①口口 |①--②|
口口②口 |--③-|
口③⑤口 |----|
口④口口 |④-⑤-|
19
⑤④口⑤ |①--②|
②①③② |--③-|
口口口口 |④--⑤|
口口口口 |----|
20
口口口口 |①--②|
口④③口 |--③-|
口②⑤口 |----|
口口①口 |④--⑤|
21
③口口③ |--①-|
口口口口 |----|
口口口口 |②-③-|
②①口② |----|
22
口口①口 |①--②|
口②⑤口 |--③-|
口④③口 |----|
口口口口 |④--⑤|
23
③①口② |--①-|
⑤口口④ |--②-|
口口口⑥ |③-④-|
口口口口 |⑤-⑥-|
24
口口口口 |①--②|
口③④口 |--③-|
口⑤②口 |----|
口①口口 |④--⑤|
25
③口口③ |--①-|
口口口口 |----|
口口④口 |②-③-|
②口①② |--④-|
26
⑤④①⑤ |①--②|
口②②口 |--③-|
口③口口 |④--⑤|
口口口口 |----|
27
口⑤⑤口 |①--②|
口②口③ |--③-|
口口口⑥ |-④--|
④口口① |⑤-⑥-|
28
③口④① |①---|
口⑤口口 |②-③-|
②口⑥口 |--④-|
口口口口 |⑤-⑥-|
29
口口口口 |--①-|
口口口口 |②-③-|
⑦⑤⑥口 |④-⑤-|
④③②① |⑥-⑦-|
30
①④口③ |①---|
口口⑤口 |②-③-|
口⑥口② |--④-|
口口口口 |⑤-⑥-|
31
口口口口 |--①-|
口口口口 |②-③-|
口⑥⑤⑦ |④-⑤-|
①②③④ |⑥-⑦-|
32
③口口① |①---|
口④④口 |②-③-|
②口口口 |--④-|
口口口口 |----|
33
口①①② |①---|
口口口口 |②-③-|
口口口③ |----|
口口口口 |----|
34
⑦⑤⑥⑧ |①-②-|
口③④口 |③-④-|
口①②口 |⑤-⑥-|
口口口口 |⑦-⑧-|
35
口口口口 |----|
②口口① |①-②-|
④口口③ |③-④-|
⑥口口⑤ |⑤-⑥-|
36
口④④口 |①--②|
⑤③③⑤ |--③-|
⑥②②⑥ |-④--|
口①①口 |⑤--⑥|
37
①口口① |----|
口口口口 |-①--|
口口口口 |----|
口口口口 |----|
38
口⑧口⑦ |①-②-|
⑥口⑤口 |③-④-|
④口③口 |⑤-⑥-|
②口①口 |⑦-⑧-|
39
⑦口⑧口 |①-②-|
口⑤口⑥ |③-④-|
口③口④ |⑤-⑥-|
口①口② |⑦-⑧-|
40
口⑧口⑦ |①-②-|
⑥口⑤口 |③-④-|
④口③口 |⑤-⑥-|
②口①口 |⑦-⑧-|
41
口口口口 |①-②-|
口⑤⑤① |③-④-|
口②口口 |⑤---|
口④口③ |----|
42
⑤②②⑤ |①---|
口口口口 |②-③-|
③①①③ |--④-|
口④④口 |--⑤-|
43
口口口口 |--①-|
①②②① |--②-|
口③③口 |--③-|
口口口④ |--④-|
44
口口④口 |①-②-|
口⑤口② |--③-|
①口⑥口 |--④-|
口③③口 |⑤-⑥-|
45
①口口口 |--①-|
口口④② |②-③-|
③口⑤口 |--④-|
口口⑥口 |⑤-⑥-|
46
⑦口⑧口 |①-②-|
口⑤口⑥ |③-④-|
口③口④ |⑤-⑥-|
口①口② |⑦-⑧-|
47
口⑧口⑦ |①-②-|
⑥口⑤口 |③-④-|
④口③口 |⑤-⑥-|
②口①口 |⑦-⑧-|
48
⑦口⑧口 |①-②-|
口⑤口⑥ |③-④-|
口③口④ |⑤-⑥-|
口①口② |⑦-⑧-|
49
口口口口 |①-②-|
①④④口 |③-④-|
口口②口 |----|
口③③口 |----|
50
口②②口 |①---|
口口口口 |----|
口①①口 |----|
口口口口 |②---|
51
口口口口 |①---|
口①①口 |----|
口⑤④口 |②-③-|
口③②口 |④-⑤-|
52
口②①口 |①-②-|
⑥④③⑤ |③-④-|
⑧口口⑦ |⑤-⑥-|
口口口口 |⑦-⑧-|
53
口口口口 |①-②-|
口⑧⑦口 |③-④-|
口⑥⑤口 |⑤-⑥-|
②④③① |⑦-⑧-|
54
口口口口 |①-②-|
②口口① |③-④-|
④口口③ |⑤-⑥-|
⑥⑧⑦⑤ |⑦-⑧-|
55
⑧口口⑦ |①-②-|
⑥④③⑤ |③-④-|
口②①口 |⑤-⑥-|
口口口口 |⑦-⑧-|
56
口①①口 |----|
口口口口 |①---|
口口③口 |--②-|
口口②口 |--③-|
57
口③口④ |--①-|
口②口口 |--②-|
口①口口 |--③-|
口口口口 |--④-|
58
⑧口①口 |①-②-|
②口⑦口 |③-④-|
⑥口③口 |⑤-⑥-|
④口⑤口 |⑦-⑧-|
59
口口①口 |①---|
③口口③ |----|
口②②口 |--②-|
口口口口 |--③-|
60
口口口口 |----|
口①①口 |①---|
口口③口 |--②-|
口口②口 |--③-|
61
④口口口 |--①-|
③口口② |--②-|
口①口口 |--③-|
口口口口 |--④-|
62
口口①⑤ |①-②-|
口②口口 |③-④-|
⑥⑧口③ |⑤-⑥-|
④口口⑦ |⑦-⑧-|
63
②④口口 |①-②-|
口口口① |③-④-|
⑧口③⑦ |⑤-⑥-|
口⑥⑤口 |⑦-⑧-|
64
口口口口 |----|
口①①③ |①---|
口口口② |--②-|
口口口口 |--③-|
65
②口①口 |--①-|
③口口口 |--②-|
④口口口 |--③-|
口口口口 |--④-|
66
口②②口 |----|
口口口口 |--①-|
口①①口 |----|
口口口口 |②---|
67
③口口③ |--①-|
口②②口 |----|
口口口口 |②---|
口①①口 |③---|
68
⑤口口⑤ |--①-|
⑥口口⑥ |②-③-|
口④③口 |④---|
口②①口 |⑤-⑥-|
69
口③③口 |--①-|
口⑤⑤口 |②---|
②④④② |③-④-|
①口口① |--⑤-|
70
②口口① |--①-|
④口口③ |②-③-|
⑤口口⑥ |④---|
口口口口 |⑤-⑥-|
71
⑥④④⑥ |--①-|
口②②口 |--②-|
⑤③③⑤ |③-④-|
口①①口 |⑤-⑥-|
最終更新:2019年08月28日 02:28