アットウィキロゴ
ロストワンの号哭
Neru

ADVANCED

Level: 8
BPM: 162
Notes: 629

1
口口口口 |----|
口口口口 |----|
口口口口 |----|
口口口口 |----|
2
⑦③④⑧ |①-②-|
口口口口 |③-④-|
口口口口 |⑤-⑥-|
⑤①②⑥ |⑦-⑧-|
3
口口口口 |①-②-|
口③④口 |③-④-|
口①②口 |⑤---|
⑤口⑥口 |⑥---|
4
①②⑥⑤ |①-②-|
口⑦⑧口 |③-④-|
口④③口 |⑤-⑥-|
口口口口 |⑦-⑧-|
5
口口口口 |①-②-|
口⑦⑧口 |③-④-|
口④③口 |⑤-⑥-|
①②⑥⑤ |⑦-⑧-|
6
①②⑥⑤ |①-②-|
口⑦⑧口 |③-④-|
口④③口 |⑤-⑥-|
口口口口 |⑦-⑧-|
7
口口口口 |①-②-|
口口口口 |③-④-|
口④③口
①②口口

口口⑥口
⑦口口口
口口口⑤ |⑤-⑥-|
口⑧口口 |⑦-⑧-|
8
①②⑥⑤ |①-②-|
口⑦⑧口 |③-④-|
口④③口 |⑤-⑥-|
口口口口 |⑦-⑧-|
9
口口口口 |①-②-|
口⑦⑧口 |③-④-|
口④③口 |⑤-⑥-|
①②⑥⑤ |⑦-⑧-|
10
①②⑥⑤ |①-②-|
口⑦⑧口 |③-④-|
口④③口 |⑤-⑥-|
口口口口 |⑦-⑧-|
11
口口口口 |①-②-|
口口⑧口 |③-④-|
⑦④③口 |⑤-⑥-|
①②⑥⑤ |⑦-⑧-|
12
口①口口 |①--②|
④口口口 |--③-|
口②⑤③ |--④-|
⑥口口口 |⑤-⑥-|
13
口口口③ |①--②|
口口②口 |--③-|
口④口口 |----|
口口口① |--④-|
14
口③口口 |①--②|
②口口口 |--③-|
口口①口
口口口口

口口口④
口⑤口口
口口⑥口 |--④-|
口口口口 |⑤-⑥-|
15
口口口口 |①--②|
③口④口 |--③-|
口②口口 |----|
①口口口 |--④-|
16
口①口口 |①--②|
④口口口 |--③-|
口②⑤③ |--④-|
⑥口口口 |⑤-⑥-|
17
口口口③ |①--②|
口口②口 |--③-|
口④口口 |----|
口口口① |--④-|
18
口③口口 |①--②|
②口口口 |--③-|
口口①口
口口口口

口口口④
口⑤口口
口口⑥口 |--④-|
口口口口 |⑤-⑥-|
19
口口口口 |①--②|
③口口④ |--③-|
⑤②口口 |--④-|
①口口⑥ |⑤-⑥-|
20
①②⑥⑤ |①-②-|
口⑦⑧口 |③-④-|
口④③口 |⑤-⑥-|
口口口口 |⑦-⑧-|
21
口口口口 |①-②-|
口⑦⑧口 |③-④-|
口④③口 |⑤-⑥-|
①②⑥⑤ |⑦-⑧-|
22
①②⑥⑤ |①-②-|
口⑦⑧口 |③-④-|
口④③口 |⑤-⑥-|
口口口口 |⑦-⑧-|
23
口口⑦口 |①-②-|
⑥口口⑦ |③-④-|
⑥④③⑤ |⑤--⑥|
①②口⑤ |--⑦-|
24
①②⑥⑤ |①-②-|
口⑦⑧口 |③-④-|
口④③口 |⑤-⑥-|
口口口口 |⑦-⑧-|
25
口口口口 |①-②-|
口⑦⑧口 |③-④-|
口④③口 |⑤-⑥-|
①②⑥⑤ |⑦-⑧-|
26
①②⑥⑤ |①-②-|
口⑦⑧口 |③-④-|
口④③口 |⑤-⑥-|
口口口口 |⑦-⑧-|
27
口口口⑤ |①-②-|
⑥口⑧口 |③-④-|
口④③口 |⑤-⑥-|
①②口⑦ |⑦-⑧-|
28
口①口口 |①--②|
④口口口 |--③-|
口②⑤③ |--④-|
⑥口口口 |⑤-⑥-|
29
口口口③ |①--②|
口口②口 |--③-|
口④口口 |----|
口口口① |--④-|
30
口③口口 |①--②|
②口口口 |--③-|
口口①口
口口口口

口口口④
口⑤口口
口口⑥口 |--④-|
口口口口 |⑤-⑥-|
31
口口口口 |①--②|
③口④口 |--③-|
口②口口 |----|
①口口口 |--④-|
32
口①口口 |①--②|
④口口口 |--③-|
口②⑤③ |--④-|
⑥口口口 |⑤-⑥-|
33
口口口③ |①--②|
口口②口 |--③-|
口④口口 |----|
口口口① |--④-|
34
口③口口 |①--②|
②口口口 |--③-|
口口①口
口口口口

口口口④
口⑤口口
口口⑥口 |--④-|
口口口口 |⑤-⑥-|
35
口④③口 |①--②|
口口口口 |--③-|
口②口口 |④---|
①口口⑤ |--⑤-|
36
⑤口口② |①--②|
口口口口 |--③-|
口④①口 |④--⑤|
③口⑥口 |--⑥-|
37
口⑤②⑥ |①--②|
口口口口 |--③-|
④口口① |④--⑤|
口③口口 |--⑥-|
38
③口⑥口 |①--②|
口④①口 |--③-|
口口口口 |④--⑤|
⑤口口② |--⑥-|
39
口③口口 |①--②|
④口口① |--③-|
口口口口 |④--⑤|
口⑤②⑥ |--⑥-|
40
⑤口口② |①--②|
口口口口 |--③-|
口④①口 |④--⑤|
③口⑥口 |--⑥-|
41
口⑤②口 |①--②|
口口口口 |--③-|
④口⑥① |④--⑤|
口③口口 |--⑥-|
42
口口口口 |①--②|
口口③口 |--③-|
口①口口
口口口②

口口口④
口口口口
口⑤口口 |--④-|
口口口口 |--⑤-|
43
④口口口 |①--②|
口③口口 |--③-|
口口①口 |--④-|
②口⑤口 |--⑤-|
44
口②口⑥ |①-②-|
⑦⑤④① |③-④-|
③口口⑧ |⑤-⑥-|
口口口口 |⑦-⑧-|
45
口口口口 |①--②|
口③④② |--③-|
口③④口 |④---|
①⑤口口 |--⑤-|
46
⑥口②口 |①-②-|
①④⑤⑦ |③-④-|
⑧口口③ |⑤-⑥-|
口口口口 |⑦-⑧-|
47
口口口口 |①--②|
②④③口 |--③-|
口④③口 |④---|
口口⑤① |--⑤-|
48
口②口⑥ |①-②-|
⑦⑤④① |③-④-|
③口口⑧ |⑤-⑥-|
口口口口 |⑦-⑧-|
49
口口⑤口 |①--②|
口③④② |--③-|
口③④口 |④---|
①口口口 |--⑤-|
50
口⑤口口 |①--②|
口③④口 |--③-|
③口口④ |④---|
①①②② |--⑤-|
51
口口口③ |①--②|
口口口口 |--③-|
口口③口
②②①①

④口口口
口口口口
口④口口 |④---|
口口⑤口 |--⑤-|
52
口②口⑥ |①-②-|
⑦⑤④① |③-④-|
③口口⑧ |⑤-⑥-|
口口口口 |⑦-⑧-|
53
口口口口 |①--②|
口③④② |--③-|
口③④口 |④---|
①⑤口口 |--⑤-|
54
⑥口②口 |①-②-|
①④⑤⑦ |③-④-|
⑧口口③ |⑤-⑥-|
口口口口 |⑦-⑧-|
55
口口口口 |①--②|
②④③口 |--③-|
口④③口 |④---|
口口⑤① |--⑤-|
56
口②口⑥ |①-②-|
⑦⑤④① |③-④-|
③口口⑧ |⑤-⑥-|
口口口口 |⑦-⑧-|
57
口口⑤口 |①--②|
口③④② |--③-|
口③④口 |④---|
①口口口 |--⑤-|
58
口⑤口口 |①--②|
口③④口 |--③-|
③口口④ |④---|
①①②② |--⑤-|
59
②口口② |①---|
③口口③ |②---|
④口口④ |③---|
⑤①①口 |④-⑤-|
60
口口口口 |①-②-|
④②①⑤ |----|
④②①⑤ |--③-|
口口口③ |④-⑤-|
61
口口②口 |----|
口③口口 |--①-|
口口④口 |②-③-|
①⑤口口 |④-⑤-|
62
口口口口 |①-②-|
②⑤④① |----|
②⑤④① |--③-|
③口口口 |④-⑤-|
63
②口口② |----|
③口口③ |--①-|
④口口④ |②--③|
口口①口 |--④-|
64
口口④③ |①-②-|
⑤⑥口口 |③-④-|
口口⑧⑦ |⑤-⑥-|
①②口口 |⑦-⑧-|
65
⑤⑥口口 |①-②-|
口口④③ |③-④-|
①②口口 |⑤-⑥-|
口口⑧⑦ |⑦-⑧-|
66
⑧口口④ |①-②-|
③口口⑦ |③-④-|
⑥口口② |⑤-⑥-|
①口口⑤ |⑦-⑧-|
67
⑦口口⑧ |①-②-|
口⑤⑥口 |③-④-|
口③④口 |⑤-⑥-|
口①②口 |⑦-⑧-|
68
口②口⑥ |①-②-|
⑦⑤④① |③-④-|
③口口⑧ |⑤-⑥-|
口口口口 |⑦-⑧-|
69
口口口口 |①--②|
口③④② |--③-|
口③④口 |④---|
①⑥⑤口 |⑤-⑥-|
70
⑥口②口 |①-②-|
①④⑤⑦ |③-④-|
⑧口口③ |⑤-⑥-|
口口口口 |⑦-⑧-|
71
口口口口 |①--②|
②④③口 |--③-|
口④③口 |④---|
口口⑤① |--⑤-|
72
口②口⑥ |①-②-|
⑦⑤④① |③-④-|
③口口⑧ |⑤-⑥-|
口口口口 |⑦-⑧-|
73
口口⑤口 |①--②|
口③④② |--③-|
口③④口 |④---|
①口口口 |--⑤-|
74
口⑤口口 |①--②|
口③④口 |--③-|
③口口④ |④---|
①①②② |--⑤-|
75
④口口③ |①--②|
口⑤⑤口 |--③-|
口④③口 |④---|
②②①① |⑤---|
76
口口口口 |①②③④|
①口口① |--⑤⑥|
②⑤⑥③
④口口口

口口口⑨
口口口⑨
口口口口 |⑦⑧--|
口⑦⑧口 |⑨---|
77
①②⑥⑤ |①-②-|
口⑦⑧口 |③-④-|
口④③口 |⑤-⑥-|
口口口口 |⑦-⑧-|
78
口口口口 |①-②-|
口⑦⑧口 |③-④-|
口④③口 |⑤-⑥-|
①②⑥⑤ |⑦-⑧-|
79
①②⑥⑤ |①-②-|
口⑦⑧口 |③-④-|
口④③口 |⑤-⑥-|
口口口口 |⑦-⑧-|
80
口口口口 |①-②-|
口口口口 |③-④-|
口④③口
①②口口

口口⑥口
⑦口口口
口口口⑤ |⑤-⑥-|
口⑧口口 |⑦-⑧-|
81
①②⑥⑤ |①-②-|
口⑦⑧口 |③-④-|
口④③口 |⑤-⑥-|
口口口口 |⑦-⑧-|
82
口口口口 |①-②-|
口⑦⑧口 |③-④-|
口④③口 |⑤-⑥-|
①②⑥⑤ |⑦-⑧-|
83
①②⑥⑤ |①-②-|
口⑦⑧口 |③-④-|
口④③口 |⑤-⑥-|
口口口口 |⑦-⑧-|
84
口口⑥⑤ |①-②-|
口⑦⑧口 |③-④-|
口④③口 |⑤-⑥-|
①②口口 |⑦-⑧-|
85
⑦③④⑧ |①-②-|
口口口口 |③-④-|
口口口口 |⑤-⑥-|
⑤①②⑥ |⑦-⑧-|
86
口口口口 |①-②-|
⑥③④⑥ |③-④-|
口①②口 |⑤---|
⑤口口口 |⑥---|
87
⑦③④⑧ |①-②-|
口口口口 |③-④-|
口口口口 |⑤-⑥-|
⑤①②⑥ |⑦-⑧-|
88
口口口口 |①-②-|
口③④口 |③-④-|
口①②口 |⑤---|
⑤口口口 |----|
最終更新:2019年08月28日 20:39