アットウィキロゴ
Cleopatrysm
ピラミッ℃

BASIC

Level: 5
BPM: 190
Notes: 375

1
口口口口 |----|
口口口口 |----|
口口口口 |----|
口口口口 |----|
2
口口口口 |----|
口口口口 |----|
口①①口 |--①-|
口口口口 |----|
3
①③口② |①---|
口口口口 |--②-|
口口口口 |----|
口口口口 |--③-|
4
口口口口 |----|
口口口口 |--①-|
口口①口 |----|
口②②口 |②---|
5
口口口口 |①---|
口②③口 |②-③-|
口口④① |----|
口口口口 |④---|
6
口口口口 |①---|
口口②口 |--②-|
口③口口 |----|
①口口口 |③---|
7
①③口② |①---|
口口口口 |--②-|
口口口口 |----|
口口口口 |--③-|
8
口口口口 |----|
口口口口 |--①-|
②口①② |----|
口口口口 |②---|
9
口口口口 |①---|
③口口③ |--②-|
口②②口 |----|
口①①口 |--③-|
10
口口口口 |----|
口口口口 |----|
口口口口 |----|
口口口口 |----|
11
口口口口 |①---|
②口⑤① |--②-|
口④口口 |--③-|
口口③口 |④-⑤-|
12
口口口口 |----|
口①口口 |----|
口口②口 |--①-|
口③口口 |②-③-|
13
口口口口 |----|
口口④口 |--①-|
口③口口 |--②-|
①口②口 |③-④-|
14
①②③④ |--①-|
口口口口 |--②-|
口口口口 |--③-|
口口口口 |--④-|
15
口口口口 |----|
口口③口 |----|
口②口口 |--①-|
口口①口 |②-③-|
16
口口④口 |----|
口③口口 |----|
口口②口 |①-②-|
口①口口 |③-④-|
17
口口口口 |----|
口口口口 |①-②-|
①口口③ |----|
②口口④ |③-④-|
18
口口口口 |--①-|
口口口③ |--②-|
口口②口 |--③-|
口①口口 |----|
19
①①口口 |①---|
口⑤口口 |--②-|
口口④口 |--③-|
口③口② |④-⑤-|
20
口口口口 |----|
口口①口 |----|
口②口口 |--①-|
口口③口 |②-③-|
21
口口口口 |----|
口④口口 |--①-|
口口③口 |--②-|
①②口口 |③-④-|
22
④③②① |--①-|
口口口口 |--②-|
口口口口 |--③-|
口口口口 |--④-|
23
口口口口 |----|
口③口口 |----|
口口②口 |--①-|
口①口口 |②-③-|
24
口④⑤口 |----|
口口③口 |--①-|
口②口口 |②-③-|
口口①口 |④-⑤-|
25
口口口口 |①---|
口①口口 |②-③-|
④⑤③② |--④-|
口口口口 |⑤---|
26
口口口口 |----|
口口口口 |①---|
口口口口 |----|
②口口① |②---|
27
口口③① |①---|
口口口口 |②---|
口口口口 |③---|
口②④口 |④---|
28
③①口口 |①---|
口口口口 |②---|
口口口④ |③---|
口口口② |④---|
29
口口口口 |①---|
①③口口 |②---|
口口②口 |③---|
口口口口 |----|
30
口口口① |①---|
口口口口 |----|
口口口② |②---|
口口口口 |----|
31
③口口③ |①---|
口②②口 |②---|
口①①口 |③---|
口①①口 |----|
32
口口口口 |①---|
②口口口 |----|
口口口口 |②---|
①口口口 |----|
33
口①①口 |①---|
口①①口 |②---|
口②②口 |③---|
③口口③ |----|
34
①口口口 |①---|
口口口口 |----|
②口口口 |②---|
口口口口 |----|
35
③口口③ |①---|
口②②口 |②---|
口①①口 |③---|
口①①口 |----|
36
口口口口 |①---|
口口口② |----|
口口口口 |②---|
口口口① |----|
37
口①①口 |①---|
口①①口 |②---|
口②②口 |③---|
③口口③ |----|
38
①口口① |①---|
口口口口 |----|
②口口② |②---|
口口口口 |----|
39
③口口③ |①---|
②口口② |②---|
口①①口 |③---|
口①①口 |----|
40
口②②口 |①---|
口口口口 |----|
口口口口 |②---|
①口口① |----|
41
口口口口 |①---|
②①①② |②---|
口①①口 |③---|
③口口③ |----|
42
①口口① |①---|
口口口口 |----|
口口口口 |②---|
口②②口 |----|
43
③口口③ |①---|
口①①口 |②---|
②①①② |③---|
口口口口 |----|
44
口口口口 |①---|
口口口口 |----|
口口口口 |----|
①口口① |----|
45
口口口口 |----|
口口口口 |----|
口①口口 |----|
口口口口 |①---|
46
口口①① |①---|
口口口口 |--②-|
口口②② |----|
口口③③ |③---|
47
口口口口 |--①-|
口口口口 |----|
口口口② |----|
口①口口 |②---|
48
①①口口 |①---|
②②口口 |--②-|
口口口口 |----|
③③口口 |③---|
49
口②口口 |--①-|
口口①口 |----|
口口口口 |②---|
口口口口 |----|
50
口口①① |①---|
口口口口 |--②-|
口口②② |----|
口口③③ |③---|
51
口口口口 |--①-|
口口口口 |----|
口口口② |②---|
①口③口 |③---|
52
①①口口 |①---|
②②口口 |--②-|
口口口口 |----|
③③口口 |③---|
53
口口口① |--①-|
口口②口 |----|
口③口口 |--②-|
口口口口 |-③--|
54
③口口② |①---|
口口口口 |--②-|
口口口口 |----|
口口①口 |--③-|
55
口口口口 |--①-|
口口口① |--②-|
口口②口 |----|
口③③口 |③---|
56
口口口口 |①---|
口②③口 |②-③-|
口口口① |----|
口口④口 |④---|
57
口口口口 |①---|
口口②口 |--②-|
①③口口 |----|
口口口口 |③---|
58
①口口② |①---|
口口口口 |--②-|
口口口口
口口口口

④口口口
口③口口
口口口口 |--③-|
口口口口 |--④-|
59
口口口口 |--①-|
口口口① |--②-|
③口②口 |----|
口口口口 |③---|
60
③口口③ |①---|
口口②口 |--②-|
口口口口 |----|
口口①口 |--③-|
61
口口口口 |----|
口口口口 |----|
口②②口 |①---|
口①①口 |②---|
62
③③①① |①---|
⑥⑥口② |②-③-|
口口⑤④ |--④-|
口口口口 |⑤-⑥-|
63
口口④口 |--①-|
口⑤口口 |②-③-|
③③⑥口 |--④-|
口口②① |⑤-⑥-|
64
③口口② |①---|
口口口口 |②-③-|
口口④口 |----|
口①口口 |④---|
65
口口口口 |①---|
口口口口 |②---|
口②口口 |----|
③①口口 |③---|
66
③③①① |①---|
⑥⑥口② |②-③-|
口口⑤④ |--④-|
口口口口 |⑤-⑥-|
67
口④口口 |--①-|
口⑥⑤口 |②-③-|
③③口口 |--④-|
口口②① |⑤-⑥-|
68
③口口③ |①---|
③口口③ |--②-|
口②②口 |----|
①口口① |--③-|
69
口口口口 |----|
口口口口 |----|
口口口口 |①---|
口口②① |②---|
70
口口口口 |①---|
①口口口 |----|
①口口口 |②---|
口口口② |----|
71
口口口③ |①---|
口②②口 |②---|
口①①口 |③---|
口口口口 |----|
72
口口口口 |①---|
口口口② |----|
口口口② |②---|
①口口口 |----|
73
③口口口 |①---|
口②②口 |②---|
口①①口 |③---|
口口口口 |----|
74
口口口口 |①---|
②口口口 |----|
②口口口 |②---|
口口口① |----|
75
口口口③ |①---|
口②②口 |②---|
口①①口 |③---|
口口口口 |----|
76
口口口口 |①---|
口口口② |----|
口口口② |②---|
①口口口 |----|
77
口口口口 |①---|
口②②口 |②---|
口①①口 |③---|
③口口④ |④---|
78
②①①② |①---|
口口口口 |----|
口口口口 |②---|
口口口口 |----|
79
口口口口 |①---|
口②②口 |②---|
口①①口 |③---|
口口口③ |----|
80
②①①② |①---|
口口口口 |----|
口口口口 |②---|
口口口口 |----|
81
口口口口 |①---|
口②②口 |②---|
口①①口 |③---|
③口口口 |----|
82
②①①② |①---|
口口口口 |----|
口口口口 |②---|
口口口口 |----|
83
口口口口 |①---|
口②②口 |②---|
口①①口 |③---|
口口口③ |----|
84
口口口口 |①---|
口口口口 |②---|
①②③④ |③---|
口口口口 |④---|
85
口口口口 |①---|
①②③④ |②---|
口口口口 |③---|
口口口口 |④---|
86
口口口口 |①---|
口口口口 |②---|
③口口④ |③---|
口①②口 |④---|
87
口③④口 |①---|
①口口② |②---|
口口口口 |③---|
口口口口 |④---|
88
口口口口 |①---|
口口口口 |②---|
口③④口 |③---|
①口口② |④---|
89
③口口④ |①---|
口①②口 |②---|
口口口口 |③---|
口口口口 |④---|
最終更新:2019年08月29日 03:32