アットウィキロゴ
KHAMEN BREAK
くふおー

ADVANCED

Level: 8
BPM: 180
Notes: 662

1
口口口口 |----|
口口口口 |----|
口口口口 |----|
口口口口 |----|
2
口口口口 |----|
口口口口 |----|
口口口口 |----|
口口口口 |----|
3
口③口口 |----|
口③口口 |①---|
口①②② |②---|
①①口② |--③-|
4
①口口口 |①---|
①口口口 |--②-|
口口③② |--③-|
口④⑤口 |④-⑤-|
5
口口口口 |①---|
①口口② |--②-|
口口③口 |--③-|
口④⑤口 |④-⑤-|
6
①口口② |①---|
口口口口 |--②-|
口口③口 |--③-|
口④⑤口 |④-⑤-|
7
口口口口 |①---|
①口口② |--②-|
口口③口 |--③-|
口④⑤口 |④-⑤-|
8
①①③③ |①---|
④④②② |--②-|
口口口口 |③---|
口口口口 |--④-|
9
①①口口 |①--②|
口口②② |--③-|
③③⑥⑥ |--④-|
⑤⑤④④ |⑤-⑥-|
10
①口口口 |①---|
⑤口口② |②-③-|
口③⑥口 |④---|
口口④口 |⑤-⑥-|
11
口口口口 |①---|
口口口口 |----|
口口口口 |----|
口①口口 |----|
12
口③口① |①-②-|
③④口① |--③-|
②口④③ |----|
②口③口 |④---|
13
①口口② |①---|
口口口口 |--②-|
口口③口 |--③-|
口④⑤口 |④-⑤-|
14
口口口口 |①---|
①口口② |--②-|
口口③口 |--③-|
口④⑤口 |④-⑤-|
15
口口口口 |①---|
口口口口 |--②-|
①口口② |----|
口③口口 |③---|
16
口③口② |①-②-|
③④口② |--③-|
①口④③ |----|
①口③口 |④---|
17
①口口② |①---|
口口口口 |--②-|
口口③口 |--③-|
口④⑤口 |④-⑤-|
18
口口口口 |①---|
①口口② |--②-|
口口③口 |--③-|
口④⑤口 |④-⑤-|
19
口口口口 |①---|
口口口口 |--②-|
①口口② |----|
③口口口 |③---|
20
口口口口 |①---|
口①①口 |----|
口①①口 |----|
口口口口 |----|
21
口口口口 |①-②-|
口口口口 |③-④-|
⑤⑥⑦⑧ |⑤-⑥-|
①②③④ |⑦-⑧-|
22
①①③③ |①--②|
④④②② |--③-|
口⑤口口 |-④--|
口口⑥口 |⑤-⑥-|
23
①①③③ |①--②|
④④②② |--③-|
口⑤口口 |-④--|
口口⑥口 |⑤-⑥-|
24
口口口口 |①-②-|
⑤⑥④③ |③-④-|
口口口口 |⑤-⑥-|
①②⑧⑦ |⑦-⑧-|
25
①②③④ |①-②-|
口口口口 |③-④-|
⑤⑥⑦⑧ |⑤-⑥-|
口口口口 |⑦-⑧-|
26
①①③③ |①--②|
④④②② |--③-|
口⑤口口 |-④--|
口口⑥口 |⑤-⑥-|
27
①①③③ |①--②|
④④②② |--③-|
口⑤口口 |-④--|
口口⑥口 |⑤-⑥-|
28
口⑤口口 |①-②-|
⑥口④① |③-④-|
⑦口③口 |⑤-⑥-|
口⑧口② |⑦-⑧-|
29
④口⑤⑤ |①-②-|
口口③口 |③-④-|
口②口口 |⑤---|
口口①口 |----|
30
④口口口 |①---|
口①口口 |--②-|
口口⑤② |③--④|
口③口口 |--⑤-|
31
口口口① |①---|
口口口口 |--②-|
口②④口 |----|
口③口口 |③-④-|
32
①口口口 |①---|
口③口⑤ |--②-|
口口口② |③--④|
④口口口 |--⑤-|
33
口口口口 |①---|
口口②④ |--②-|
口③口口 |----|
口①口口 |③-④-|
34
①口口口 |①---|
④口口口 |--②-|
口口②口 |③--④|
口③口⑤ |--⑤-|
35
口口口① |①---|
口口口口 |--②-|
口②④口 |----|
口③口口 |③-④-|
36
①口⑤口 |①---|
口口口口 |--②-|
④口口③ |③--④|
口口②口 |--⑤-|
37
①②口② |①---|
口口口口 |--②-|
口口口口 |----|
口口口口 |----|
38
⑤口口⑤ |①---|
③①①③ |--②-|
④②②④ |--③-|
口口口口 |④-⑤-|
39
⑤口口⑤ |①---|
③①①③ |--②-|
④②②④ |--③-|
口口口口 |④-⑤-|
40
⑤口口⑤ |①---|
③①①③ |--②-|
④②②④ |--③-|
口口口口 |④-⑤-|
41
⑤口口⑤ |①---|
③①①③ |--②-|
④②②④ |--③-|
口口口口 |④-⑤-|
42
口口口口 |①-②-|
口①①口 |--③-|
口口口口 |--④-|
②③④⑤ |--⑤-|
43
⑤④③② |①-②-|
口口口口 |--③-|
口①①口 |--④-|
口口口口 |--⑤-|
44
口口口口 |①-②-|
口①①口 |--③-|
口口口口 |--④-|
②③④⑤ |--⑤-|
45
④口口④ |①-②-|
口①①口 |③---|
口②③口 |④---|
口口口口 |----|
46
⑤③口口 |①-②-|
④口口口 |--③-|
口②口口 |④---|
①口口① |--⑤-|
47
口口口口 |①-②-|
⑤口口口 |③-④-|
③④口口 |⑤---|
①②口口 |----|
48
口口③⑤ |①-②-|
口口口④ |--③-|
口口②口 |④---|
口口口① |--⑤-|
49
口口口口 |①-②-|
口口口⑤ |③-④-|
口口④③ |⑤---|
口口②① |----|
50
口①口⑧ |①-②-|
口口②⑥ |③-④-|
③⑤口口 |⑤-⑥-|
⑦口④口 |⑦-⑧-|
51
口口⑧口 |①-②-|
①⑦④口 |③-④-|
⑥⑤口② |⑤-⑥-|
口③口口 |⑦-⑧-|
52
③口口① |①---|
③口口① |②---|
口口口口 |③---|
④④②② |④---|
53
口⑤⑥⑥ |①-②-|
口③④口 |③-④-|
口①②口 |⑤---|
口口口口 |⑥---|
54
⑧④口⑥ |①-②-|
⑤口口口 |③-④-|
口②⑦③ |⑤-⑥-|
①口口口 |⑦-⑧-|
55
口口口⑥ |①-②-|
⑤口⑦口 |③-④-|
③④口⑧ |⑤-⑥-|
①②口口 |⑦-⑧-|
56
口口④⑧ |①-②-|
⑥口口⑤ |③-④-|
口⑦②口 |⑤-⑥-|
③口口① |⑦-⑧-|
57
⑥口口口 |①-②-|
口⑦⑦⑤ |③-④-|
口口④③ |⑤-⑥-|
口口②① |⑦---|
58
口③③口 |①-②-|
④口口④ |--③-|
②⑤⑤② |④---|
①口口① |⑤---|
59
③⑤⑤口 |①-②-|
口④④口 |--③-|
①口口② |④---|
①口口② |⑤---|
60
口⑦⑧口 |①-②-|
口⑤⑥口 |③-④-|
口③④口 |⑤-⑥-|
口①②口 |⑦-⑧-|
61
⑦⑦⑧⑧ |①-②-|
⑤⑤⑥⑥ |③-④-|
③③④④ |⑤-⑥-|
①①②② |⑦-⑧-|
62
口口口口 |①---|
③④口口 |--②-|
口口②口 |----|
口①口口 |③-④-|
63
口②口口 |①--②|
口口①口 |----|
口口④口 |----|
口口口③ |③-④-|
64
口口口口 |①---|
口①口口 |②---|
口②口口 |③---|
口③④口 |④---|
65
口口口口 |①---|
口口口口 |----|
口口口口 |----|
口口口① |----|
66
口口口口 |①---|
口口口口 |--②-|
①①②② |----|
口③③口 |③---|
67
口口口口 |①---|
①①②② |--②-|
口口口口 |----|
口③③口 |③---|
68
口口口口 |①---|
口口口口 |②---|
①②③④ |③---|
口口口口 |④---|
69
口口口① |①---|
口口口口 |----|
口口口口 |----|
口口口口 |----|
70
①口口② |①-②-|
③口口④ |③-④-|
⑤口口⑥ |⑤-⑥-|
⑦口口⑧ |⑦-⑧-|
71
①口②口 |①-②-|
③口④口 |③-④-|
⑤口⑥口 |⑤-⑥-|
⑦口⑧口 |⑦-⑧-|
72
①②口口 |①-②-|
③④口口 |③-④-|
⑤⑥口口 |⑤-⑥-|
⑦⑧口口 |⑦-⑧-|
73
口口①① |①---|
口口②② |②---|
口口③③ |③---|
口口④④ |④---|
74
②口口① |①-②-|
④口口③ |③-④-|
⑥口口⑤ |⑤-⑥-|
⑧口口⑦ |⑦-⑧-|
75
口②口① |①-②-|
口④口③ |③-④-|
口⑥口⑤ |⑤-⑥-|
口⑧口⑦ |⑦-⑧-|
76
口口②① |①-②-|
口口④③ |③-④-|
口口⑥⑤ |⑤-⑥-|
口口⑧⑦ |⑦-⑧-|
77
①①②② |①---|
①①②② |----|
口口口口 |②---|
口口口口 |----|
78
口口口口 |①---|
口口口口 |----|
口①①口 |----|
口①①口 |----|
79
口④口口 |①---|
口④口口 |②---|
口②③③ |③---|
②②①③ |--④-|
80
①口口口 |①---|
①口②口 |--②-|
口②口口 |--③-|
③④⑤口 |④-⑤-|
81
口口③① |①--②|
口②口⑤ |--③-|
口④口口 |④---|
口口口口 |--⑤-|
82
⑤口口② |①-②-|
③⑤②口 |--③-|
口口⑥口 |④-⑤-|
①口口④ |--⑥-|
83
口①②口 |①-②-|
③口口④ |③-④-|
⑤口口⑥ |⑤-⑥-|
口⑦⑧口 |⑦-⑧-|
84
①①②② |①-②-|
口口③口 |--③-|
口③口口 |--④-|
④⑤⑥口 |⑤-⑥-|
85
②③口⑤ |①--②|
口口口口 |--③-|
口口④① |④---|
口口口口 |--⑤-|
86
⑥③③⑤ |①-②-|
⑥④④⑤ |--③-|
②口口② |④---|
①口口① |⑤-⑥-|
87
口④口口 |--①-|
口④口口 |②---|
口②③③ |③---|
②②①③ |--④-|
88
①口口口 |①---|
①口②口 |--②-|
口②口口 |--③-|
③④⑤口 |④-⑤-|
89
口口③① |①--②|
口②口⑤ |--③-|
口④口口 |④---|
口口口口 |--⑤-|
90
⑤口口② |①-②-|
③⑤②口 |--③-|
口口⑥口 |④-⑤-|
①口口④ |--⑥-|
91
口①②口 |①-②-|
③口口④ |③-④-|
⑤口口⑥ |⑤-⑥-|
口⑦⑧口 |⑦-⑧-|
92
①①②② |①-②-|
口口③口 |--③-|
口③口口 |--④-|
④⑤⑥口 |⑤-⑥-|
93
③⑤口③ |①--②|
②④④① |--③-|
②③③① |④---|
口口口口 |--⑤-|
94
④口口④ |①---|
③口口③ |②---|
②口口② |③---|
①口口① |④---|
95
④④④④ |①---|
③③③③ |②---|
②②②② |③---|
①①①① |④---|
96
口③口口 |----|
口③口口 |①---|
口①②② |②---|
①①口② |--③-|
97
①口口口 |①---|
①口口口 |----|
口口口口 |----|
口口口口 |----|
最終更新:2019年08月29日 03:35