アットウィキロゴ
Metric
Hommarju

BASIC

Level: 3
BPM: 123
Notes: 238

1
口口口口 |----|
口口口口 |----|
口口口口 |----|
口口口口 |----|
2
①口口口 |①---|
口口口口 |----|
口口口口 |----|
口口口口 |----|
3
口口口口 |①---|
口口口口 |----|
口口①口 |----|
口口口口 |----|
4
口口口口 |①---|
口口口口 |----|
口口口口 |----|
口①口口 |----|
5
口口口口 |①---|
②口口口 |----|
口口口① |②---|
口口口口 |----|
6
口口口口 |①---|
②①①② |----|
口口口口 |②---|
口口口口 |----|
7
口口口口 |①---|
口口口口 |----|
口①①口 |----|
口口口口 |----|
8
口口口口 |①---|
口口口口 |----|
②①①② |②---|
口口口口 |----|
9
口口口口 |①---|
口口口口 |----|
口口口口 |----|
口①①口 |----|
10
口口口口 |①---|
②①①② |----|
口口口口 |②---|
口口口口 |----|
11
口口口口 |①---|
口口口口 |----|
口①①口 |----|
口口口口 |----|
12
口口口口 |①---|
口口口口 |----|
②①①② |②---|
口口口口 |----|
13
口口口口 |①---|
口口口口 |----|
口口口口 |----|
口①①口 |----|
14
①②③④ |①---|
口口口口 |②---|
口口口口 |③---|
口口口口 |④---|
15
口口口口 |①---|
①②③④ |②---|
口口口口 |③---|
口口口口 |④---|
16
口口口口 |①---|
口口口口 |②---|
①②③④ |③---|
口口口口 |④---|
17
口口口口 |①---|
口口口口 |----|
口口口口 |----|
①口口口 |----|
18
口口①① |①---|
②②口口 |----|
口口口口 |②---|
口口口口 |----|
19
口口口口 |①---|
口口口口 |----|
口口①① |②---|
②口口③ |③---|
20
口口口口 |①---|
口②②口 |----|
口①①口 |②---|
口口口口 |----|
21
①口口① |①---|
口③③口 |----|
②口口② |②---|
口口口口 |③---|
22
①①口口 |①---|
口口②② |----|
口口口口 |②---|
口口口口 |----|
23
口口口口 |①---|
口口口口 |----|
①①口口 |②---|
③口口② |③---|
24
口口口口 |①---|
口②②口 |----|
口①①口 |②---|
口口口口 |----|
25
①口口① |①---|
口口口口 |----|
口③③口 |②---|
②口口② |③---|
26
口口口口 |①---|
①①①① |----|
口口口口 |②---|
②②②② |----|
27
①①②② |----|
口口口口 |----|
口口口口 |①---|
口口口口 |②---|
28
口口口口 |①---|
口①①口 |----|
口口口口 |----|
口口口口 |----|
29
口口口口 |①---|
③口口③ |----|
②口口② |②---|
口①①口 |③---|
30
①口口① |①---|
口口口口 |----|
口口口口 |----|
口口口口 |----|
31
口口口口 |①---|
②①①② |----|
③口口③ |②---|
口口口口 |③---|
32
口口口口 |①---|
口口口口 |----|
口口口口 |----|
①口口① |----|
33
③③④④ |①---|
口口口口 |②---|
口①②口 |③---|
口口口口 |④---|
34
口口口口 |①---|
口①①口 |----|
口口口口 |----|
口口口口 |----|
35
口口口口 |①---|
口口口口 |----|
口口口口 |----|
①口口口 |----|
36
口口口口 |①---|
口口口口 |----|
口①口口 |----|
口口口口 |----|
37
口口口口 |①---|
口口①口 |----|
口口口口 |----|
口口口口 |----|
38
①①口口 |①---|
口口口口 |----|
口口口口 |----|
口口口口 |----|
39
口口口口 |①---|
口口口① |----|
口口口口 |----|
口口口口 |----|
40
口口口口 |①---|
口口口口 |----|
口口①口 |----|
口口口口 |----|
41
口口口口 |①---|
口口口口 |----|
口口口口 |----|
口①口口 |----|
42
口口①① |①---|
口②口口 |----|
口口③口 |②---|
口口口口 |③---|
43
口口口口 |①---|
口口②② |----|
③③口口 |②---|
①①口口 |③---|
44
口口口口 |①---|
口口③口 |----|
口②口口 |②---|
口口①① |③---|
45
①①口口 |①---|
③③口口 |----|
口口②② |②---|
口口口口 |③---|
46
口口①① |①---|
口②口口 |----|
口口③口 |②---|
口口口口 |③---|
47
口口口口 |①---|
口口②② |----|
③③口口 |②---|
①①口口 |③---|
48
口口口口 |①---|
口②口口 |----|
口口③口 |②---|
口口①① |③---|
49
口口口口 |①---|
③③口口 |----|
口口②② |②---|
①①口口 |③---|
50
口口①① |①---|
口口②② |②---|
口口③③ |③---|
口口④④ |④---|
51
④④口口 |①---|
③③口口 |②---|
②②口口 |③---|
①①口口 |④---|
52
口口①① |①---|
口口②② |②---|
口口③③ |③---|
口口④④ |④---|
53
口口口口 |①---|
口①①口 |----|
口口口口 |----|
口口口口 |----|
54
①口口② |①---|
口③④口 |②---|
口口口口 |③---|
口口口口 |④---|
55
口口口口 |①---|
口口口口 |②---|
①口口② |③---|
③③④④ |④---|
56
口口口口 |①---|
口②②口 |----|
口①①口 |②---|
口口口口 |----|
57
①口口① |①---|
②口口② |②---|
③口口③ |③---|
④口口④ |④---|
58
口①②口 |①---|
③口口④ |②---|
口口口口 |③---|
口口口口 |④---|
59
口口口口 |①---|
口口口口 |②---|
口①②口 |③---|
③③④④ |④---|
60
口口口口 |①---|
口①①口 |----|
口②②口 |②---|
口口口口 |----|
61
①口口① |①---|
②口口② |②---|
③口口③ |③---|
④口口④ |④---|
62
口口口口 |①---|
口①①口 |----|
口①①口 |----|
口口口口 |----|
最終更新:2019年08月29日 04:10