アットウィキロゴ
とまどい→レシピ
みかくにんぐッ!

ADVANCED

Level: 6
BPM: 170
Notes: 356

1
口口口口 |----|
口口口口 |----|
口口口口 |----|
口口口口 |----|
2
①口口口 |①---|
②口口口 |②---|
③口口口 |③---|
口口口口 |----|
3
口口口① |①---|
口③④② |②---|
口③④口 |③---|
口口口口 |④---|
4
①口口口 |①---|
②口口口 |②---|
③口口口 |③---|
口口口口 |----|
5
口口口① |①---|
口③④② |②---|
口③④口 |③---|
口口口口 |④---|
6
①口口口 |①---|
②口口口 |②---|
③口口口 |③---|
口口口口 |----|
7
口口口① |①---|
口③④② |②---|
口③④口 |③---|
口口口口 |④---|
8
①口口口 |①---|
②口口口 |②---|
③口口口 |③---|
口口口口 |----|
9
口口口① |①---|
口③④② |②---|
口③④口 |③---|
口口口口 |④---|
10
口口口口 |①---|
②口口④ |②---|
口口口口 |③---|
①口口③ |④---|
11
④②口③ |①---|
口④③口 |②---|
口①口口 |③---|
口口口口 |④---|
12
口口口口 |①---|
④口口② |②---|
口口口口 |③---|
③口口① |④---|
13
口口口口 |①---|
口口口口 |--②-|
②②①① |----|
口口口口 |----|
14
口口口口 |①---|
②口口④ |②---|
口口口口 |③---|
①口口③ |④---|
15
④②口③ |①---|
口④③口 |②---|
口①口口 |③---|
口口口口 |④---|
16
口口口口 |①---|
口口口口 |----|
①①①① |----|
口口口口 |----|
17
口口口口 |----|
口口口口 |----|
口口口口 |----|
口口口口 |----|
18
口口口口 |①---|
口④⑤口 |②---|
口口口口 |③---|
①②③口 |④-⑤-|
19
①口口口 |--①-|
③口口② |②-③-|
⑤⑥口④ |④-⑤-|
口口口口 |--⑥-|
20
④口口口 |①---|
⑥②③⑤ |②-③-|
口口①口 |--④-|
口口口口 |⑤-⑥-|
21
口口口口 |①---|
口口口口 |②---|
口④⑤① |③---|
②②③③ |④-⑤-|
22
①口口② |--①-|
口①②口 |②---|
口口口口 |----|
口口口口 |----|
23
口①口口 |----|
①②口口 |①---|
②③口口 |②---|
③口口口 |③---|
24
④口口② |①---|
口口口口 |--②-|
口③③口 |③---|
口①①口 |--④-|
25
口口口口 |①---|
口①①② |--②-|
口③③口 |③---|
口口口口 |----|
26
口口口口 |①---|
口⑤④口 |②---|
口口口口 |③---|
口③②① |④-⑤-|
27
口口口① |--①-|
②口口③ |②-③-|
④口⑥⑤ |④-⑤-|
口口口口 |--⑥-|
28
口口口④ |①---|
口③②口 |②-③-|
口①⑤口 |--④-|
口口口口 |--⑤-|
29
口口口口 |①---|
口口口口 |②---|
口①口口
口口②②

口口口口
口口口口
口⑤④口 |③---|
③③口口 |④-⑤-|
30
②口口① |--①-|
③②①④ |②---|
口口口口 |----|
口口口口 |③-④-|
31
⑥⑥口口 |①-②-|
口④④口 |③-④-|
①⑤⑤② |--⑤-|
③口⑥⑥ |--⑥-|
32
口口口口 |----|
口口口口 |----|
口口口口 |----|
口口口口 |----|
33
口①②口 |----|
口口口口 |----|
口口口口 |--①-|
口口口口 |②---|
34
口口口口 |①---|
①①口口 |②---|
口口②②
口口口口

口口口口
⑤口口口
口口口口 |③---|
③③④口 |④-⑤-|
35
口①②口 |①-②-|
口⑤⑥③ |③-④-|
口④口口 |--⑤-|
口口口口 |⑥---|
36
①①口口 |①---|
口口口⑤ |②-③-|
⑥口②口 |④---|
口③④口 |⑤-⑥-|
37
④③②① |①-②-|
口⑤口口 |③-④-|
口口⑥口 |--⑤-|
口⑦口口 |⑥-⑦-|
38
②口①① |①---|
⑤口③口 |②-③-|
口④口⑥ |④---|
口口口口 |⑤-⑥-|
39
口⑤口④ |①-②-|
口③⑥口 |③-④-|
口⑦口口 |--⑤-|
口①②口 |⑥-⑦-|
40
口口口口 |①---|
④口口④ |②---|
③口口③ |③---|
②口①② |④---|
41
①②③① |①---|
口口口口 |②-③-|
口④⑤口 |--④-|
口⑥口口 |⑤-⑥-|
42
口口口口 |①---|
②口口③ |--②-|
口口⑤口 |③---|
口④①口 |④-⑤-|
43
②口口② |①---|
口①③口 |--②-|
口口口口 |----|
口口③口 |③---|
44
口口口口 |①---|
口①口口 |----|
口口口口 |----|
口①口口 |----|
45
②口口② |①---|
③口口③ |②---|
口①①口 |③---|
口⑤④口 |④-⑤-|
46
口④①① |①---|
②④口③ |--②-|
口②③口 |③---|
口口口口 |--④-|
47
④口①④ |①---|
口口①口 |②-③-|
口口⑤口 |--④-|
②②③③ |--⑤-|
48
口口口口 |①---|
口①②口 |--②-|
④③口口 |③---|
口④口口 |--④-|
49
②②③③ |①---|
⑤口口⑤ |②-③-|
口④④① |--④-|
口口①口 |--⑤-|
50
口口⑤口 |①---|
口②口口 |②---|
口④③口 |③-④-|
口①口口 |--⑤-|
51
口①口口 |①---|
③口⑥② |②-③-|
口⑤口口 |--④-|
口口④口 |⑤-⑥-|
52
③①口② |①---|
③口口② |②---|
口⑤④口 |③---|
口口口口 |④-⑤-|
53
口口口口 |----|
口②①口 |①-②-|
口口口口 |----|
口口口口 |----|
54
口④①① |①---|
②④口③ |--②-|
口②③口 |③---|
口口口口 |--④-|
55
④口①④ |①---|
口口①口 |②-③-|
口口⑤口 |--④-|
②②③③ |--⑤-|
56
口口口口 |①---|
口①②口 |--②-|
④③口口 |③---|
口④口口 |--④-|
57
②②③③ |①---|
⑤口口⑤ |②-③-|
口④④① |--④-|
口口①口 |--⑤-|
58
口口⑤口 |①---|
口②口口 |②---|
口④③口 |③-④-|
口①口口 |--⑤-|
59
口①口口 |①---|
③口⑥② |②-③-|
口⑤口口 |--④-|
口口④口 |⑤-⑥-|
60
①①口口 |①---|
③③口口 |②---|
口口②② |③---|
口口④④ |④---|
61
口口②② |①---|
③③口口 |②---|
口口④④ |③---|
①①口口 |④---|
62
口口口口 |①---|
②口口④ |②---|
口口口口 |③---|
①口口③ |④---|
63
④②口③ |①---|
口④③口 |②---|
口①口口 |③---|
口口口口 |④---|
64
口口口口 |①---|
口口口口 |----|
①口口① |----|
口①①口 |----|
最終更新:2019年08月29日 04:30