アットウィキロゴ
Spanish Snowy Dance
Mutsuhiko Izumi

BASIC

Level: 4
BPM: 180
Notes: 291

1
口口口口 |----|
口口口口 |----|
口口口口 |----|
口口口口 |----|
2
①②③口 |①---|
口口口口 |--②-|
口口口口 |----|
口口口口 |③---|
3
口口口口 |①---|
口③②① |--②-|
口口口口 |----|
口口口口 |③---|
4
口口口口 |①---|
口口口口 |--②-|
①②③口 |----|
口口口口 |③---|
5
口口口① |①---|
口口口② |②---|
口口口③ |③---|
口口口④ |④---|
6
口口口口 |①---|
口口口口 |----|
口①①口 |----|
口口口口 |----|
7
口口口口 |①---|
口①①口 |----|
口口口口 |----|
口口口口 |----|
8
口口口口 |①---|
口口口口 |----|
①口口① |----|
口口口口 |----|
9
口口口口 |①---|
①口口① |----|
口口口口 |----|
口口口口 |----|
10
①口口② |①---|
口①②口 |----|
口口口口 |②---|
口口口口 |----|
11
口口口口 |①---|
口口口口 |----|
口①①口 |----|
口口口口 |----|
12
②口口① |①---|
口②①口 |----|
口口口口 |②---|
口口口口 |----|
13
口口口口 |①---|
口口口口 |----|
口①①口 |----|
口口口口 |----|
14
口口口① |①---|
口口②口 |--②-|
口③口口 |----|
口口口口 |③---|
15
口口口口 |①---|
口口口口 |----|
口口口口 |----|
口①①口 |----|
16
口口口口 |①---|
口口口口 |----|
口①①口 |----|
口口口口 |----|
17
口口口口 |①---|
①①①① |----|
口口口口 |----|
口口口口 |----|
18
①口口② |①---|
口①②口 |----|
口口口口 |②---|
口口口口 |----|
19
口口口口 |①---|
口口口口 |----|
口①①口 |----|
口口口口 |----|
20
②口口① |①---|
口②①口 |----|
口口口口 |②---|
口口口口 |----|
21
口口口口 |①---|
口口口口 |----|
口①①口 |----|
口口口口 |----|
22
口口口① |①---|
口口②口 |--②-|
口③口口 |----|
口口口口 |③---|
23
口口口口 |①---|
口口口口 |----|
口口口口 |----|
口①①口 |----|
24
口口口口 |①---|
口口口口 |----|
口①①口 |----|
口口口口 |----|
25
口口口口 |①---|
①①①① |----|
口口口口 |----|
口口口口 |----|
26
④口①口 |①---|
口②③口 |②---|
口口口口 |③---|
口口口口 |④---|
27
口口口口 |①---|
口口口口 |②---|
④口①口 |③---|
口②③口 |④---|
28
口①口④ |①---|
口③②口 |②---|
口口口口 |③---|
口口口口 |④---|
29
口口口口 |①---|
口口口口 |②---|
口①口④ |③---|
口③②口 |④---|
30
口②③口 |①---|
①口口④ |②---|
口口口口 |③---|
口口口口 |④---|
31
口口口口 |①---|
口②③口 |②---|
①口口④ |③---|
口口口口 |④---|
32
口口口口 |①---|
口口口口 |②---|
口②③口 |③---|
①口口④ |④---|
33
口②②口 |①---|
口①①口 |----|
口口口口 |②---|
口口口口 |----|
34
口口口口 |①---|
口③②口 |----|
口口口① |②---|
口口口口 |③---|
35
口口口口 |①---|
①口口口 |----|
口口口口 |----|
口口口口 |----|
36
口口口口 |①---|
口②③口 |----|
①口口口 |②---|
口口口口 |③---|
37
口口口口 |①---|
口口口① |----|
口口口口 |----|
口口口口 |----|
38
①②④③ |①---|
口口口口 |②---|
口口口口 |③---|
口口口口 |④---|
39
口口口口 |①---|
①②④③ |②---|
口口口口 |③---|
口口口口 |④---|
40
口口口口 |①---|
口口口口 |②---|
口③口④ |③---|
口①口② |④---|
41
口口口口 |①---|
口口口口 |②---|
④口③口 |③---|
②口①口 |④---|
42
口口口口 |①---|
口口②① |----|
口口口口 |②---|
口口口口 |----|
43
口口口口 |①---|
口①口口 |----|
口口口口 |----|
口口口口 |----|
44
口口口口 |①---|
②④口口 |②---|
①③口口 |③---|
口口口口 |④---|
45
口口口口 |①---|
口口口口 |----|
口口①口 |----|
口口口口 |----|
46
口口口口 |①---|
口口①① |----|
口口口口 |----|
口口口口 |----|
47
口口口口 |①---|
①①口口 |----|
口口口口 |----|
口口口口 |----|
48
口口口口 |①---|
口口口口 |----|
口②①口 |②---|
口口口口 |----|
49
口口口口 |①---|
口③③口 |----|
口②②口 |②---|
①口口① |③---|
50
①①①① |①---|
②口口② |----|
②口口② |②---|
口口口口 |----|
51
口④口口 |①---|
口口③口 |②---|
口②口口 |③---|
口口①口 |④---|
52
口口口口 |①---|
②口口② |----|
②口口② |②---|
①①①① |----|
53
口口①口 |①---|
口②口口 |②---|
口口③口 |③---|
口④口口 |④---|
54
①①①① |①---|
②口口② |----|
②口口② |②---|
口口口口 |----|
55
口④口口 |①---|
口口③口 |②---|
口②口口 |③---|
口口①口 |④---|
56
口口①口 |①---|
口②口口 |②---|
口口③口 |③---|
口④口口 |④---|
57
口口口口 |①---|
①口口① |----|
①口口① |----|
口口口口 |----|
58
口①①口 |①---|
口口口口 |----|
口口口口 |----|
口口口口 |----|
59
口口口口 |①---|
口①①口 |----|
口口口口 |----|
口口口口 |----|
60
口口口口 |①---|
口口口口 |----|
口①②口 |②---|
口口口口 |----|
61
口口口口 |①---|
口口口口 |----|
口口口口 |----|
口①①口 |----|
62
③③口口 |①---|
口口②口 |--②-|
口口口① |----|
口口口口 |③---|
63
口口③③ |①---|
口②口口 |--②-|
①口口口 |----|
口口口口 |③---|
64
口口口口 |①---|
①②③口 |--②-|
口口口口 |----|
口口口口 |③---|
65
③④口口 |①---|
②口口口 |②---|
①口口口 |③---|
口口口口 |④---|
66
口口①口 |①---|
口口口口 |----|
口②②口 |②---|
口口口口 |----|
67
①口口② |①---|
口①②口 |----|
口口口口 |②---|
口口口口 |----|
68
口口口口 |①---|
口口口口 |----|
口①①口 |----|
口口口口 |----|
69
②口口① |①---|
口②①口 |----|
口口口口 |②---|
口口口口 |----|
70
口口口口 |①---|
口口口口 |----|
口①①口 |----|
口口口口 |----|
71
口口口① |①---|
口口②口 |--②-|
口③口口 |----|
口口口口 |③---|
72
口口口口 |①---|
口口口口 |----|
口口口口 |----|
口①①口 |----|
73
口口口口 |①---|
口口口口 |----|
口①①口 |----|
口口口口 |----|
74
口口口口 |①---|
①①①① |----|
口口口口 |----|
口口口口 |----|
75
①口口② |①---|
口①②口 |----|
口口口口 |②---|
口口口口 |----|
76
口口口口 |①---|
口口口口 |----|
口①①口 |----|
口口口口 |----|
77
②口口① |①---|
口②①口 |----|
口口口口 |②---|
口口口口 |----|
78
口口口口 |①---|
口口口口 |----|
口①①口 |----|
口口口口 |----|
79
口口口① |①---|
口口②口 |--②-|
口③口口 |----|
口口口口 |③---|
80
口口口口 |①---|
口口口口 |----|
口口口口 |----|
口①①口 |----|
81
口口口口 |①---|
口口口口 |----|
口①①口 |----|
口口口口 |----|
82
口口口口 |①---|
①①①① |----|
口口口口 |----|
口口口口 |----|
83
口口口口 |①---|
②①①② |--②-|
②①①② |----|
口口口口 |----|
84
口②②口 |①---|
口②②口 |--②-|
口①①口 |----|
口①①口 |----|
85
②②②② |①---|
口口口口 |--②-|
口口口口 |----|
①①①① |----|
86
口口口口 |----|
口口口口 |----|
口口口口 |----|
口口口口 |----|
87
口口口口 |----|
口口口口 |----|
口①①口 |--①-|
口口口口 |----|
88
②②②② |①---|
①口口① |----|
口口口口 |②---|
口口口口 |----|
最終更新:2019年08月29日 05:13