アットウィキロゴ
キセキ [ 2 ]


EXTREME

Level: 8
BPM: 94
Notes: 556

1
口口口口 |------------------------|
口②口口 |------------------------|
①口②口 |------------------------|
口①口口 |①-----------②-----------|
2
口口①⑤ |①-----------------------|
口口④① |②-----------③-----------|
口③口口 |④-----------⑤-----------|
②⑦⑦⑥ |⑥-----------⑦-----------|
3
⑤――< |①-----------②-----------|
②④④② |③-----------④------⑤----|
①③③①
口口口口

⑥口口口
口口口口
口⑦⑦口 |------------------⑥-----|
口口口口 |------------⑦-----------|
4
③②②③ |①-----------②-----------|
口①①口 |③-----------④-----------|
⑤<>⑤ |⑤-----------------⑥-----|
口④④口

⑦口口⑧
口口口口
⑥口口⑥
口口口口 |⑦-----------⑧-----------|
5
④②②④ |①-----------②-----------|
口口口口 |③-----------④-----------|
口口口口
③①①③

口⑥⑦口
⑥⑦口口
⑤⑤⑤⑤ |⑤-----------------------|
口口口口 |⑥-----------⑦-----------|
6
口口口① |①-----------------------|
口口①口 |②-----------③-----------|
口③②口
口口③②

口⑥⑥口
口口口⑤
④口口⑤ |④-----------⑤-----------|
⑦④口⑦ |⑥-----------⑦-----------|
7
②口口② |①-----------②-----------|
⑤――< |③-----------④------⑤----|
④①①④
口③③口

口口口口
⑥口口口
口口口口 |------------------⑥-----|
口⑦⑦口 |------------⑦-----------|
8
④③③④ |①-----------②-----------|
口②②口 |③-----------④-----------|
口①①口
口口口口

口∨口口
口|口口
口|口口 |⑤-----------------------|
口⑤口口

口口∨口
口口|口
口口|口
口⑥⑥口 |⑥-----------------------|
9
∨口口∨ |①-----------------------|
|口口| |------------------------|
|口口|
①口①①

口⑦口口
口⑤⑥口
口③④口 |②------------------③----|
②口口② |④------⑤----⑥------⑦----|
10
口口①口 |①-----------------------|
口口口口 |②-----------------------|
口口口口
②――<

口口口口
④⑥口④
⑤口口⑤ |③-----------------------|
③口口③ |④-----------⑤------⑥----|
11
②口①② |①-----------②-----------|
④口口④ |③-----------④-----------|
∧口口∧
③口口③

口口口口
⑤⑦口⑤
⑥口口⑥ |------------------⑤-----|
口口口口 |------------⑥------⑦----|
12
③口①③ |①-----------②-----------|
口口口口 |③-----------④-----------|
④口口④
②口口②

口口口口
⑤⑥⑦口
⑧⑤⑥⑦ |------------⑤-----------|
口口口口 |⑥-----------⑦------⑧----|
13
②③④口 |①-----------②-----------|
口口口① |③-----------④-----------|
口口口口
②③④口

口⑩口⑤
口⑧⑨口
口⑥⑦口 |⑤------------------⑥----|
口口口⑤ |⑦------⑧----⑨------⑩----|
14
口口①口 |①-----------------------|
口口口口 |②-----------------------|
口口口口
②――<

口口口口
④⑤⑥口
④⑤⑥口 |③-----------④-----------|
③口口③ |⑤-----------⑥-----------|
15
口③③口 |①-----------②-----------|
口∨∨① |③-----------④-----------|
口④④①
口②②口

⑥口口⑥
口口口口
口⑤⑤口 |------------⑤-----------|
口口口口 |------------⑥-----------|
16
口口口口 |①-----------②-----------|
②口口② |③-----------④-----------|
③④④③
①口口①

口⑧口口
⑦口口⑦
⑥口口⑥ |------------⑤-----------|
口⑤⑤口 |⑥-----------⑦------⑧----|
17
②口①② |①-----------②------③----|
⑤③④⑤ |④-----------⑤------⑥----|
口⑥口口
口口口口

⑪口口⑪
∧口口∧
⑧口⑦⑧ |⑦-----------⑧------⑨----|
口⑨⑩口 |⑩------⑪----------⑫⑬----|

⑫⑬口⑫
口口口口
口口口口
口口口口
18
口⑦①口 |①------②----③------④----|
口②③口 |⑤-----------⑥------⑦----|
口④⑤口
⑥口口⑥

口口口口
――⑧
口口口口 |⑧-----------------------|
口口口口

口口口口
⑨口口⑨
口口口口
口⑩口口 |⑨------------------⑩----|
19
口⑥⑦口 |①------②----③------④----|
口④⑤口 |⑤------⑥----⑦------⑧----|
口②③口
口⑧①口

口口口口
口口口口
口口口口 |⑨-----------------------|
――⑨

口口口口
口口口口
口口口口
⑩口口⑩ |⑩-----------------------|
20
口②③口 |①------②----③------④----|
①④⑤① |⑤------⑥----⑦------⑧----|
口⑥⑦口
口⑧口口

⑪口口⑪
⑬口口口
⑩⑫⑫⑩ |⑨-----------⑩------⑪----|
口口⑨口 |------------⑫------⑬----|
21
口③③口 |①-----------②------③----|
口④⑤① |------------④------⑤----|
口口口口
口②②口

口口口口
口⑩口口
口⑧⑨口 |-------------------⑥----|
口⑥⑦口 |⑦------⑧----⑨------⑩----|
22
口口口口 |①-----------------------|
口口①口 |②-----------------------|
口口口口
――②

口口口口
口⑧口口
口⑥⑦口 |③------------------④----|
③④⑤③ |⑤------⑥----⑦------⑧----|
23
口口口口 |①-----------------------|
口口①口 |②-----------------------|
――②
口口口口

口④⑤口
口⑥⑦口
③⑧口③ |③------------------④----|
口口口口 |⑤------⑥----⑦------⑧----|
24
口口口口 |①------------------②----|
⑥口口口 |③------④----⑤------⑥----|
④口①⑤
②口口③

口⑧⑧口
口⑩口⑦
口口口口 |⑦-----------------------|
⑨口口⑨ |⑧-----------⑨------⑩----|
25
②口口② |①-----------②-----------|
口口①口
口口口口
口口口口

口口口口
⑤<>⑤ |③-----------④------⑤----|
④口口④
口③③口

口口口口
⑥口口⑥
口口口口 |------------------------|
口⑦口口 |⑥------------------⑦----|
26
⑥口口⑥ |①------②----③------④----|
⑦④⑤⑦ |⑤-----------⑥-----------|
∧②③∧ |⑦-----------------------|
口口①口

口⑧⑧口
⑧⑨口⑧
口口口口
口口口口 |⑧------------------⑨----|
27
∨口口∨ |①------②----③------④----|
⑧口①⑧ |⑤------⑥----⑦-----------|
⑥②③⑦ |⑧-----------------------|
口④⑤口

口⑨⑨口
⑨口口⑨
口口口口
口口口口 |⑨-----------------------|
28
⑥口口⑥ |①------②----③------④----|
口④⑤口 |⑤-----------⑥------⑦----|
口②③口
①⑦口①

口⑪⑫口
⑩⑬口⑩
⑨口口⑨ |⑧-----------⑨------⑩----|
口口⑧口 |-------⑪----⑫------⑬----|
29
口口口口 |①-----------②------③----|
③口①③
口口口口
②口口②

口∨∨口
口⑤⑤口 |------------④------⑤----|
口口口口
口④④口

口⑩口口
口⑥⑥口
口⑧⑨口 |------------⑥-----------|
⑦口口⑦ |⑦------⑧----⑨------⑩----|
30
口口①口 |①-----------------------|
口口口口
口口口口
口口口口

②――<
口口口口 |②-----------------------|
口口口口
口口口口

③口口③
口④⑤口
口⑥⑦口 |③------------------④----|
口⑧口口 |⑤------⑥----⑦------⑧----|
31
②――< |①-----------------------|
口口口口 |②-----------------------|
口口口口
口口①口

③口口③
口⑧口口
口⑥⑦口 |③------------------④----|
口④⑤口 |⑤------⑥----⑦------⑧----|
32
口口口口 |①-----------------------|
口⑤①口 |②------③----④------⑤----|
口③④口
②口口②

⑦口口⑦
⑧口⑥⑧
口⑨口口 |⑥-----------------------|
口口口口 |⑦-----------⑧------⑨----|
33
③口口③ |①-----------②-----------|
口口口口 |③-----------④------⑤----|
⑤口①⑤
②④④②
34
口∨∨口 |①-----------------------|
②①①② |②-----------------------|
口口口口
口口口口

口⑥口口
⑤口口⑤
口③④口 |③-----------④-----------|
口口口口 |⑤-----------⑥-----------|
35
口口①口 |①-----------②-----------|
③②②③ |③-----------④-----------|
口口口口
④口口④

口⑦⑦口
口口口口
⑤⑥⑥⑤ |⑤-----------⑥------⑦----|
口口口口

⑩<>⑩
口⑧⑨口
口口口口
口口口口 |-------⑧----⑨------⑩----|
36
口口口口 |------------------------|
①口口① |①-----------------------|
口口口口
口口口口

④⑤⑤④
④②③④
⑥⑥< |②-----------③-----------|
口口口口 |④-----------⑤------⑥----|
37
口口口口 |------------------------|
①口口① |①-----------------------|
口口口口
口口口口

口口口口
④②③④
口⑤⑤口 |②-----------③-----------|
口口口口 |④-----------⑤-----------|
38
⑥口口⑧ |①-----------②-----------|
⑤口口⑦ |③-----------④-----------|
②口口④ |⑤-----------⑥-----------|
①口口③ |⑦-----------⑧-----------|
39
口口口口 |①-----------②-----------|
⑤口口⑤ |③-----------④-----------|
⑦②④⑦ |⑤-----------------------|
⑥①③⑥ |⑥-----------⑦-----------|
40
口口口口 |①-----------------------|
①口口① |②-----------③-----------|
口③③口
口②②口

口⑤⑤口
口④④口
⑥口口口 |④-----------⑤-----------|
口⑦口口 |⑥-----------⑦-----------|
41
③口∨③ |①-----------②-----------|
口④⑤口 |③-----------④------⑤----|
口口口②
口口①口

口口口口
口口⑥口
口⑨口口 |------------------⑥-----|
口⑦⑧口 |-------⑦----⑧------⑨----|
42
⑤<>⑤ |①-----------②-----------|
②口口② |③-----------④-----------|
④口①④ |⑤-----------------------|
③口口③

⑥口口⑥
口⑧口口
⑦口口⑦
口口口口 |⑥------⑦-----------⑧----|
43
③口口③ |①-----------②-----------|
⑤口①⑤ |③-----------④-----------|
④⑦⑦④ |⑤-----------------------|
②⑥⑥② |⑥-----------⑦-----------|
44
口口口口 |①-----------------------|
口①①口 |②-----------③-----------|
③口口③
②口口②

⑦④④⑦
⑥⑧口⑥
口⑤⑤口 |④-----------⑤-----------|
口口口口 |⑥-----------⑦------⑧----|
45
⑤<>⑤ |①------②-----------③----|
口口①口 |-------④-----------⑤----|
③口口③
②④④②

⑥口口⑥
口口口口
口口口口 |------------------------|
口⑦⑦口 |⑥-----------⑦-----------|
46
⑤③③⑤ |①-----------②-----------|
②口口② |③-----------④-----------|
①⑥⑥① |⑤-----------------------|
口④④口 |⑥-----------------------|
47
∨口口∨ |①-----------------------|
|口口| |------------------------|
|口口|
①口口①

口口口口
口口口口
口口口口 |------------------------|
②口口② |②-----------------------|
最終更新:2019年10月22日 00:16