アットウィキロゴ
Daydream cafe [ 2 ]
Petit Rabbit’s

EXTREME

Level: 8
BPM: 150
Notes: 482

1
口口口口 |----|
口口③口 |----|
②口口口 |--①-|
口口口① |②-③-|
2
口①∨① |①-|
口口|口
口口|口
口口①口

③∨③口 |②-|
口|口口 |③-|
口|口口
口③②口

口口口口
口⑦⑦口 |④-|
⑥口口⑤ |⑤-⑥-|
口④口口 |--⑦-|
3
①口口口 |--①-|
口⑦口⑥ |②-③-|
⑤口②口 |④-⑤-|
口③口④ |⑥-⑦-|
4
口口①① |①---|
口口口|
口口口∧
口口口口

②②口②
|口口口 |②---|
∧口口口
口口口口

③口口口
④口口④
口③③口 |③---|
口口口口 |--④-|
5
口⑤口口 |--①-|
口①口口 |②-③-|
口口④口 |④-⑤-|
口③②口 |----|
6
口口口口 |①---|
①④③① |②---|
口④③口 |③-④-|
②⑤⑤② |--⑤-|
7
③③口口 |--①-|
口口口② |②-③-|
①⑤口② |----|
①口④口 |④-⑤-|
8
口口口① |①-②-|
口②口口 |③-④-|
④口口口
口口口③

口∨⑦口
⑥|口⑤
口|口口 |⑤-⑥-|
口⑧口口 |⑦-⑧-|
9
口口口口 |--①-|
口口口③ |②-③-|
②②①①
口②口口

⑥口口口
④口口口
口口口口 |④-⑤-|
―⑦⑤ |⑥-⑦-|
10
口口口口 |①-②-|
⑧④③⑦ |③-④-|
②⑥⑤① |⑤-⑥-|
口口口口 |⑦-⑧-|
11
④④口口 |①-②-|
口②①口 |③-④-|
口口口③
口口口口

口口口口
口⑦⑦口
口口口口 |--⑤-|
⑤⑤⑥口 |⑥-⑦-|
12
口②口口 |--①-|
⑥口口口 |②-③-|
口⑤③口 |④-⑤-|
④⑦口① |⑥-⑦-|
13
口口口口 |①---|
口口>①
口口口口
口口口口

③<口口
口口口② |②-③-|
口口口口
口口口②

④口口口
口⑤口口
④口⑤口 |--④-|
口口口口 |--⑤-|
14
口③口口 |--①-|
④口⑥① |②-③-|
口⑤口⑦ |④-⑤-|
口口②口 |⑥-⑦-|
15
①口④④ |①-②-|
口②口口 |③-④-|
⑥⑥③口 |--⑤-|
口口⑤⑤ |--⑥-|
16
口口④口 |--①-|
⑤①口口 |②-③-|
口⑦②⑥ |④-⑤-|
口③口口 |⑥-⑦-|
17
口①∨① |①-|
口口|口
口口|口
口口①口

③∨③口 |②-|
口|口口 |--③-|
口|口口
口③②口

口口口口
口⑦口口
口口⑥口 |④-⑤-|
口④口⑤ |⑥-⑦-|
18
口口口① |①-②-|
⑤口②∨ |③-④-|
口③口| |⑤-⑥-|
口口④⑥

口口口口
口口口口
⑦口口口
口口口⑦ |--⑦-|
19
④口口① |--①-|
口⑤②口 |②-③-|
口③⑥口 |④-⑤-|
口口口⑦ |⑥-⑦-|
20
口口口口 |①---|
∨口口② |②---|
|口口口
①口口口

口③口口
口口④口
口口⑥口 |③-④-|
⑤⑥口口 |⑤-⑥-|
21
②口⑥② |--①-|
④⑤口口 |--②-|
③①口③ |③-④-|
口口①口 |⑤-⑥-|
22
口①口口 |①-②-|
口口②口 |③-④-|
口③口口
口口④口

⑦―<口
口口口⑥
口口口口 |⑤-⑥-|
⑤口口口 |--⑦-|
23
①④口口 |--①-|
⑥口①口 |②-③-|
口②⑤⑦ |④-⑤-|
口口③口 |⑥-⑦-|
24
口口口口 |①---|
口∨口口
口|口口
口①口口

口口口口
口口∨口 |②---|
口口|口
口②②口

口口⑤口
口⑤口③
口口口④ |③---|
口口③口 |④-⑤-|
25
⑥①口⑦ |--①-|
②口①③ |--②-|
②④⑤③ |③-④⑤|
⑧口口⑨ |⑥⑦⑧⑨|
26
口④⑧口 |①-②-|
③口口⑦ |③-④-|
②口口⑥ |⑤-⑥-|
口①⑤口 |⑦-⑧-|
27
④口口⑤ |①-②-|
口③⑥口 |③-④-|
口②⑦口 |⑤-⑥-|
①口口口 |⑦---|
28
口①③口 |--①-|
①口⑤③ |②---|
④⑤口② |③-④-|
口④②口 |--⑤-|
29
①②口口 |--①-|
①②口口 |②-③-|
口口口③
口口口③

口口口⑥
⑦口口口
口口④口 |④-⑤-|
⑤口④口 |⑥-⑦-|
30
∨④口口 |①-②-|
|口②口 |③-④-|
⑤①口③ |⑤---|
口口口口

口口口⑦
口⑥口口
⑥口口口
口口口口 |⑥-⑦-|
31
⑤⑧⑦口 |①-②-|
⑥口①口 |③-④-|
⑦口⑤② |⑤-⑥-|
口口③④ |⑦-⑧-|
32
口口口口 |①-②③|
⑥④⑤口 |④⑤⑥-|
口②③口
―①口

⑦⑧⑨⑩
口口口口
口口口口 |⑦-⑧-|
口口⑩口 |⑨-⑩-|
33
④口口口 |--①②|
口①口⑤ |③-④-|
⑥口②口 |⑤-⑥-|
口③口口

口口口⑦
⑧――<
口口口口
口口口口 |⑦-⑧-|
34
口口④④ |--①-|
口口⑤⑤ |②-③-|
口口③③ |--④-|
口口②① |--⑤-|
35
口④④口 |--①-|
⑤⑤⑤口 |②-③-|
口③③口 |--④-|
口②①口 |--⑤-|
36
④⑤⑤④ |--①-|
口⑤⑤口 |②-③-|
③口口③ |--④-|
口②①口 |--⑤-|
37
口口口口 |--①-|
①口⑥② |②-③-|
⑤①②口 |--④-|
③③口④ |⑤-⑥-|
38
口①∨① |①-|
口口|口
口口|口
口口①口

③∨③口 |②-|
口|口口 |③-|
口|口口
口③②口

口口口口
口⑦⑦口 |④-|
⑥口口⑤ |⑤-⑥-|
口④口口 |--⑦-|
39
①口口口 |--①-|
口⑦口⑥ |②-③-|
⑤口②口 |④-⑤-|
口③口④ |⑥-⑦-|
40
口口①① |①---|
口口口|
口口口∧
口口口口

②②口②
|口口口 |②---|
∧口口口
口口口口

③口口口
④口口④
口③③口 |③---|
口口口口 |--④-|
41
口⑦⑥⑤ |--①-|
口①口口 |②-③-|
口口④口 |④-⑤-|
口③②口 |⑥-⑦-|
42
口口口口 |①---|
①④③① |②---|
口④③口 |③-④-|
②⑤⑤② |--⑤-|
43
③③口口 |--①-|
口口口② |②-③-|
①⑤口② |----|
①口④口 |④-⑤-|
44
口口口① |①-②-|
口②口口 |③-④-|
④口口口
口口口③

口∨⑦口
⑥|口⑤
口|口口 |⑤-⑥-|
口⑧口口 |⑦-⑧-|
45
口口口口 |--①-|
口口⑥③ |②-③-|
⑤口②口 |--④-|
口③①④ |⑤-⑥-|
46
口①∨① |①-|
口口|口
口口|口
口口①口

③∨③口 |②-|
口|口口 |③-|
口|口口
口③②口

口口口口
口⑦⑦口 |④-|
⑥口口⑤ |⑤-⑥-|
口④口口 |--⑦-|
47
①口口口 |--①-|
口⑦口⑥ |②-③-|
⑤口②口 |④-⑤-|
口③口④ |⑥-⑦-|
48
口口①① |①---|
口口口|
口口口∧
口口口口

②②口②
|口口口 |②---|
∧口口口
口口口口

③口口口
④口口④
口③③口 |③---|
口口口口 |--④-|
49
⑤⑥⑦口 |--①-|
口①口口 |②-③-|
口口④口 |④-⑤-|
口③②口 |⑥-⑦-|
50
口口口口 |①---|
①④③① |②---|
口④③口 |③-④-|
②⑤⑤② |--⑤-|
51
③③口口 |--①-|
口口口② |②-③-|
①⑤口② |----|
①口④口 |④-⑤-|
52
口口口① |①-②-|
口②口口 |③-④-|
④口口口
口口口③

口∨⑦口
⑥|口⑤
口|口口 |⑤-⑥-|
口⑧口口 |⑦-⑧-|
53
口⑧⑧口 |--①②|
④口口⑦ |③-④-|
⑥口③② |⑤-⑥-|
口③①⑤ |⑦-⑧-|
54
①口口② |--①-|
口①②口 |②-③-|
③③口口
口口口口

⑦――<
⑦口口⑥
口口口⑥ |④-⑤-|
⑤⑤④④ |⑥-⑦-|
55
口③③口 |①---|
口①①口 |--②-|
口口口口 |----|
口②②口 |③---|
56
③口口③ |--①-|
口③③口 |②-③-|
②口口① |----|
口口口口 |----|
最終更新:2019年10月22日 00:17