アットウィキロゴ
走れメロンパン [ 2 ]
日向美ビタースイーツ♪

EXTREME

Level: 8
BPM: 170
Notes: 551

1
③―<口 |----|
②口口口 |----|
①口口口 |--①-|
口口口口 |②-③-|
2
①口口② |----|
口口口① |----|
口口口③ |--①-|
口口口口 |②-③-|
3
④⑤口口 |--①-|
口②⑥口 |②-③-|
口①口口 |--④-|
口③口口 |⑤-⑥-|
4
③④口口 |①---|
口口⑥⑤ |②---|
口①①口 |③-④-|
口②②口 |⑤-⑥-|
5
口口口口 |--①-|
口口口口 |----|
口口∨∨
口口①①

④―<口
③口口口
②口口口 |--②-|
口口②② |③-④-|
6
①口口② |----|
口口口① |----|
口口口③ |--①-|
口口口口 |②-③-|
7
④⑤口口 |--①-|
口②⑥口 |②-③-|
口①口口 |--④-|
口③口口 |⑤-⑥-|
8
③口口④ |①---|
⑤口口⑥ |②---|
口①①口 |③-④-|
口②②口 |⑤-⑥-|
9
口口口口 |--①-|
口口口口 |②-③-|
③<>③
口①②口

口口口口
口口口口
④口口④ |----|
口口口口 |④---|
10
口口口口 |①---|
口①①口 |----|
口口口口 |----|
口口口口 |----|
11
口口口口 |----|
口口口口 |----|
口口口口 |--①-|
①②③口 |②-③-|
12
口口口⑥ |--①-|
④⑤口口 |②-③-|
口③②① |--④-|
口口口口 |⑤-⑥-|
13
⑦口①⑥ |①---|
⑤口口④ |②-③-|
③口口② |④-⑤-|
口口口口 |⑥-⑦-|
14
口口口口 |①---|
④①①口 |②---|
③口口口 |③---|
口②②口 |④---|
15
口口口口 |①---|
口⑤口② |--②-|
口④口口 |--③-|
口③口① |④-⑤-|
16
③口④④ |--①-|
③⑤④④ |②-③-|
③口④④ |--④-|
①口口② |--⑤-|
17
口⑧⑧口 |①-②-|
⑦口口⑦ |③-④-|
⑥③④⑥ |⑤-⑥-|
②⑤⑤① |⑦-⑧-|
18
口口口口 |----|
口③口口 |①---|
口口②口 |②---|
口①口口 |③---|
19
②口口② |①---|
③口口口 |--②-|
①④⑤① |--③-|
口口口口 |④-⑤-|
20
口口口口 |①---|
口口口口
口口口口
口>―①

②―<口
口口口口 |②---|
口口口③ |----|
口口口② |③---|
21
①口口口 |----|
口④③① |①---|
口口口② |--②-|
口口口口 |③-④-|
22
①―<口 |①---|
口口口口
口口口口
口口口口

②口口口
③口口口 |②---|
口口口口 |----|
口>―② |③---|
23
口口口口 |----|
口④口口 |①---|
①口③口 |--②-|
口②口① |③-④-|
24
④③②① |①-②-|
口⑧⑦口 |③-④-|
口⑥⑤口 |⑤-⑥-|
口口口口 |⑦-⑧-|
25
⑦口口⑦ |①-②-|
|口口| |③-④-|
∧⑥⑤∧ |⑤-⑥-|
④③②① |--⑦-|
26
口口口口 |----|
口口口口 |----|
口口口口 |----|
口口口口 |----|
27
①口口① |①---|
口②②口 |----|
口口口口 |②---|
口口口口 |----|
28
口口口口 |①-②-|
②口口① |③-④-|
④口口③
口口口口

口口⑤口
口口⑥⑧
口⑦口口 |⑤-⑥-|
口口口口 |⑦-⑧-|
29
⑦③口口 |①-②-|
①④口口 |③-④-|
口口⑤② |⑤-⑥-|
⑥⑥口口 |--⑦-|
30
口口②① |①-②-|
口③口口 |③-④-|
口口口口
口口口④

口⑦⑧口
口口口口
口⑥口口 |⑤-⑥-|
口口⑤口 |⑦-⑧-|
31
①口口口 |①②③-|
②口口口 |----|
③口口⑥ |--④-|
⑤口口④ |⑤-⑥-|
32
口⑤口口 |①-②-|
⑤①④口 |③-④-|
口②③⑦ |⑤---|
⑥口口口 |⑥-⑦-|
33
②③口口 |①-②-|
⑧口⑤④ |③-④-|
口⑦①口 |⑤-⑥-|
⑥口口口 |⑦-⑧-|
34
口②①口 |①-②-|
口口口③ |③-④-|
⑦⑦④口 |⑤-⑥-|
口⑥⑥⑤ |--⑦-|
35
②②⑤⑦ |①-②-|
口④①① |③-④-|
口口③口 |⑤-⑥-|
口口⑥⑧ |⑦-⑧-|
36
口口口口 |----|
①口口口 |----|
②口口口 |--①-|
③<口口 |②-③-|
37
口口口口 |--①-|
口口口① |②-③-|
口口口②
③口>③

口⑥<口
口⑤口口
口④口口 |--④-|
口口口⑥ |⑤-⑥-|
38
口③口③ |--①-|
⑥⑥口② |②-③-|
⑤⑤⑤① |--④-|
④④④④ |⑤-⑥-|
39
①口⑥② |①---|
口口⑤④ |②---|
口口口③ |③-④-|
口口口口 |⑤-⑥-|
40
口①口口 |--①-|
②口口口 |----|
③口口口 |--②-|
④<口口 |③-④-|
41
口口口口 |--①-|
口口口① |②-③-|
口口口②
③口>③

口⑥<口
口⑤口口
口④口口 |--④-|
口口口⑥ |⑤-⑥-|
42
口③口③ |--①-|
口④⑤② |②-③-|
口④⑤① |--④-|
口⑥⑥口 |⑤-⑥-|
43
⑥口口⑤ |①---|
①④③① |②---|
②③④② |③-④-|
⑤口口⑥ |⑤-⑥-|
44
口①①口 |--①-|
口③③口 |②-③-|
②③③② |----|
口口口口 |----|
45
口③③① |①---|
口②②① |②---|
①②②口 |③---|
①③③④ |④---|
46
①③③② |①---|
口③口③ |②-③-|
③③口④ |----|
③③口④ |--④-|
47
③口口口 |--①-|
③口②④ |②-③-|
①⑤⑥口 |--④-|
口口⑥口 |⑤-⑥-|
48
口③口口 |--①-|
口③②口 |②-③-|
①口口口 |----|
口口口口 |----|
49
⑦⑦④① |①-②-|
⑤⑤口② |③-④-|
③③⑧③ |⑤-⑥-|
①①⑥⑦ |⑦-⑧-|
50
口口④① |①-②-|
口口口② |③-④-|
③③口③
①①口口

⑦⑦口⑦
⑤⑤⑥⑧
口口口口 |⑤-⑥-|
口口口口 |⑦-⑧-|
51
口口口口 |①---|
口口口口 |----|
∨∨∨∨
①①①①

口口口口
口口口口
口口口口 |----|
②②②② |②---|
52
口④⑤口 |①-②-|
口口①口 |③-④-|
口②③口 |⑤-⑥-|
口⑥口口

⑧――<
口⑦口口
口口口口
口口口口 |⑦-⑧-|
53
③口口口 |--①-|
口口①② |②-③-|
口口口口
――③

口⑤口口
⑥――<
口④口口 |--④-|
口口口⑥ |⑤-⑥-|
54
口口②口 |--①-|
③口口口 |②-③-|
口口①③
口口口口

④口口⑤
口④⑤口
口⑥⑥口 |--④-|
口口口口 |⑤-⑥-|
55
口①口口 |①---|
②口口口 |②---|
口口口②
口口①口

⑥⑥⑥⑥
口⑤口⑤
④口④口 |③-④-|
口③口③ |⑤-⑥-|
56
口③口口 |--①-|
口②口口 |----|
④――< |--②-|
①口①口 |③-④-|
57
口口②口 |--①-|
――③ |②-③-|
③口口口
口口口①

⑤∨口口
口|口⑥
口|口口 |--④-|
④⑥口口 |⑤-⑥-|
58
口口③口 |--①-|
⑥④①⑤ |②-③-|
④⑥⑤② |--④-|
口③口口 |⑤-⑥-|
59
口②口口 |①---|
口口①口 |②---|
口口口①
口口②口

④口③口
⑤口⑥⑤
口⑥口口 |③-④-|
口③口④ |⑤-⑥-|
60
③③③③ |--①-|
口①口口 |②-③-|
口口①口 |----|
口②②口 |----|
61
口口口口 |①---|
①③③① |②---|
②④④② |③---|
①③③① |④---|
62
口①②口 |①---|
口③③口 |②-③-|
③口口③ |----|
④③③④ |--④-|
63
口③③口 |--①-|
口②④口 |②-③-|
口⑤①口 |--④-|
口⑥⑥口 |⑤-⑥-|
64
③口口③ |--①-|
口②口口 |②-③-|
口口①口 |----|
口口口口 |----|
65
⑦⑦⑦口 |①-②-|
⑤⑤⑥① |③-④-|
③③口② |⑤-⑥-|
①①④③ |⑦---|
66
口口口口 |①-②-|
口口④③ |③-④-|
③③口口
①①②①

⑦⑦⑦⑥
⑤⑤口口
∨∨∨∨ |⑤-⑥-|
⑧⑧⑧⑧ |⑦-⑧-|
67
――② |----|
口口口口 |①---|
口口口口 |②---|
①①①①

口口口③
③――<
口口口口
口口口口 |③---|
68
口口口口 |①---|
①口口口
――①
口口口口

口口口口
口口口口 |②---|
口口口②
②――<

⑤<>⑤
④口③④
口口口口 |③---|
③口口口 |④-⑤-|
69
口口口口 |----|
口口口口 |----|
口口口口 |----|
口口口口 |----|
70
①口口① |①---|
①口口① |----|
口口口口 |----|
口口口口 |----|
71
①①< |①---|
①>① |----|
①①<< |----|
①①<< |----|
72
口口口口 |----|
口口口口 |----|
口口口口 |----|
口口口口 |----|
73
口口口口 |----|
口口口口 |----|
口口口口 |----|
口口口口 |----|
74
口口口口 |----|
口口口口 |----|
口口口口 |----|
口口口口 |----|
75
口①①口 |①---|
口①口① |----|
①①口口 |----|
①①口口 |----|
最終更新:2019年10月22日 00:24