アットウィキロゴ
レット・イット・ゴー~ありのままで~ [ 2 ]


BASIC

Level: 1
BPM: 137
Notes: 76

1
口口口口 |----|
口口口口 |----|
口口口口 |----|
口口口口 |----|
2
口口口口 |----|
口口口口 |----|
口口口口 |----|
口口口口 |----|
3
口口口口 |----|
口口口口 |----|
口口口口 |----|
口口口口 |----|
4
口口口口 |----|
口口口口 |----|
口口口口 |----|
口口口口 |----|
5
口口口口 |----|
口口口口 |----|
口口口口 |----|
口口口口 |----|
6
口口口口 |----|
口口口口 |----|
口口口口 |----|
口口口口 |----|
7
口口口口 |----|
口口口口 |----|
口口口口 |----|
口口口口 |----|
8
口口口口 |----|
口口口口 |----|
口口口口 |----|
口口口口 |----|
9
口口口口 |----|
口口口口 |----|
口口口口 |----|
口口口口 |----|
10
口口口口 |①---|
①――< |----|
口口口口 |----|
口口口口 |----|
11
口口口口 |----|
口口口口 |----|
口口口口 |----|
口口口口 |----|
12
口口口口 |----|
口口口口 |----|
口口口口 |----|
口口口口 |----|
13
口口口口 |①---|
①口口口 |----|
口口口口 |----|
口口口口 |----|
14
口口口口 |①---|
口口口口 |----|
――① |----|
口口口口 |----|
15
口口口口 |----|
口口口口 |----|
口口口口 |----|
口口口口 |----|
16
口口口口 |----|
口口口口 |----|
口口口口 |----|
口口口口 |----|
17
口口口口 |①---|
口口口口 |----|
口口口① |----|
口口口口 |----|
18
口∨∨口 |①---|
口||口 |----|
口||口 |----|
口①①口 |----|
19
口口口口 |----|
口口口口 |----|
口口口口 |----|
口口口口 |----|
20
口口口口 |----|
口口口口 |----|
口口口口 |----|
口口口口 |----|
21
口口口口 |①---|
口口口口 |----|
口口口口 |----|
口①①口 |----|
22
口口口口 |----|
①――< |①---|
口口口口
口口口口

口口口口
②口口口
口口口口 |----|
口口口口 |--②-|
23
口口口口 |----|
口口口口 |①---|
――① |----|
口口口口 |----|
24
口口口口 |--①-|
口口口口 |----|
口②②① |②---|
口口口口 |----|
25
口②②口 |①---|
口①①口 |----|
口口口口 |②---|
口口口口 |----|
26
∨口口口 |----|
|口口口 |①---|
①口口口
口口口口

口口口口
口口口口
②口口口 |----|
口口口口 |--②-|
27
口口口∨ |--①-|
口口口| |----|
口口口①
口口口口

口口口口
口口口口
口口口② |----|
口口口口 |--②-|
28
口∨∨口 |----|
口||口 |①---|
口①①口 |----|
口口口口 |----|
29
口口口口 |----|
口口口口 |----|
口①①口 |----|
口口口口 |--①-|
30
①――< |----|
口口口口 |①---|
口口口口
口口口口

②口口口
口口口口
口口口口 |----|
口口口口 |--②-|
31
――① |----|
口口口口 |①---|
口口口口
口口口口

口口口②
口口口口
口口口口 |----|
口口口口 |--②-|
32
口口口口 |①---|
①――< |----|
口口口口 |----|
口口口口 |----|
33
口口口口 |----|
①口口口 |----|
口口口口 |①---|
口口口口 |----|
34
口∨∨口 |①---|
口||口 |----|
口②②口 |②---|
口①①口 |----|
35
口口口口 |----|
口口口口 |----|
口①①口 |①---|
口口口口 |----|
36
口口口∨ |①---|
口口口| |----|
口口口①
口口口口

口口口口
口口口口
口口口② |②---|
口口口口 |----|
37
∨口口口 |①---|
|口口口 |----|
①口口口
口口口口

口口口口
口口口口
②口口口 |②---|
口口口口 |----|
38
口口口口 |①---|
口②②口 |----|
口①①口 |②---|
口口口口 |----|
39
①①< |①---|
口口口口 |----|
口口口口
口口口口

口②②口
口口口口
口口口口 |②---|
口口口口 |----|
40
口口口∨ |①---|
口口口| |----|
口口口①
口口口口

口口口口
口口口口
口口口② |②---|
口口口口 |----|
41
∨口口口 |①---|
|口口口 |----|
①口口口
口口口口

口口口口
口口口口
②口口口 |②---|
口口口口 |----|
42
口口口口 |①---|
口②②口 |----|
口①①口 |②---|
口口口口 |----|
43
口①①口 |①---|
口口口口 |----|
口口口口 |----|
口口口口 |----|
44
口口口口 |①---|
――① |----|
口口口口 |----|
口口口口 |----|
45
口口口口 |----|
口口口① |----|
口口口口 |①---|
口口口口 |----|
46
口口口口 |①---|
①――< |----|
口口口口 |----|
口口口口 |----|
47
口口口口 |----|
①口口口 |----|
口口口口 |①---|
口口口口 |----|
48
口口口口 |①---|
口②②口 |----|
口①①口 |②---|
口口口口 |----|
49
口①①口 |①---|
口口口口 |----|
口口口口 |----|
口口口口 |----|
50
口口口口 |①---|
①②②① |----|
口口口口 |②---|
口口口口 |----|
51
口口口口 |①---|
口口口口 |----|
口①①口 |----|
口口口口 |----|
最終更新:2019年10月22日 00:25