アットウィキロゴ
レット・イット・ゴー~ありのままで~ [ 2 ]


EXTREME

Level: 7
BPM: 137
Notes: 360

1
口口口口 |----|
口口口口 |----|
口口口口 |----|
口口口口 |----|
2
口口口⑤ |①-②-|
口口口口 |③-④-|
①②③④ |--⑤-|
口口口口 |----|
3
口口口口 |①-②-|
④③②① |③-④-|
口口口口
口口口口

口口口口
口口口⑥
口口口口 |--⑤-|
⑤口口口 |--⑥-|
4
⑤口口口 |①-②-|
⑥口口口 |③-④-|
④③②① |--⑤-|
口口口口 |--⑥-|
5
口口口口 |①---|
口口口口 |----|
①――<
口口口口

口口口口
口口口口
②口口② |②---|
口口口口 |----|
6
口口口口 |①-②-|
①②③④ |③-④-|
口口口口 |--⑤-|
口口口⑤ |----|
7
⑤口口口 |①-②-|
口口口⑥ |③-④-|
④③②① |--⑤-|
口口口口 |--⑥-|
8
⑤口口口 |①-②-|
⑥口口口 |③-④-|
④③②① |--⑤-|
口口口口 |--⑥-|
9
口口口口 |①---|
口口口口 |----|
①――<
口口口口

③口口口
口口口口
②口口② |②---|
口口口口 |--③-|
10
口口口② |①---|
①口口③ |②-③-|
口口口④ |④---|
口⑤⑤口 |⑤---|
11
口①①口 |①-②-|
口②②口 |--③-|
③⑤口③ |----|
④口口口 |④-⑤-|
12
口口口口 |①-②-|
口口口口 |----|
――②
口口①口

口口口口
⑥⑤④口
口口口③ |③-④-|
口口口口 |⑤-⑥-|
13
①口口① |----|
口口口口 |----|
口口口口 |----|
口口口口 |--①-|
14
口口口口 |--①-|
口①①口 |②-③-|
口②②口
③③<

⑥口口⑥
⑤口口⑤
口口口口 |--④-|
口④④口 |⑤-⑥-|
15
③②②口 |--①-|
④口口口 |②---|
口①①口 |----|
口口口口 |③-④-|
16
口口口口 |①-②-|
口口口口 |----|
①口口口
②――<

口口口④
口口口⑤
口口口⑥ |③-④-|
③口口口 |⑤-⑥-|
17
口口口口 |①---|
口口口口 |----|
口口口口
――①

口口口口
口口口口
口口口口 |②---|
②口口② |----|
18
②口口③ |①---|
口①①口 |②-③-|
口④④口 |--④-|
⑤口口⑤ |--⑤-|
19
③口口③ |--①-|
②口口② |--②-|
①口口① |--③-|
口④④口 |--④-|
20
④③③④ |--①-|
口②②口 |--②-|
口①①口 |--③-|
口口口口 |--④-|
21
⑦口口口 |--①-|
⑤口口⑥ |②-③-|
③口口④ |④-⑤-|
①口口② |⑥-⑦-|
22
口口口① |①---|
口②③口 |②-③-|
口口口口
口口口口

⑥口口⑥
口口口口
口④⑤口 |④-⑤-|
口口口口 |--⑥-|
23
∨口口∨ |----|
|①②| |①-②-|
|③④| |③-④-|
⑤口口⑤ |⑤---|
24
口∨∨口 |①-②-|
口||口 |----|
③||口 |③---|
①②②① |----|
25
口口口口 |①---|
口口口口 |----|
口①②口 |②---|
口③③口 |--③-|
26
⑤⑤口口 |①---|
口③口口 |②-③-|
口②口① |--④-|
④④口① |--⑤-|
27
口口口口 |--①-|
①――<
口口口口
口口口口

口口口口
②口口口 |--②-|
――②
口口口口

口∨∨口
口||口
口||③ |--③-|
口③③口

∨口口∨
|口口|
|口口|
④④④④ |--④-|
28
口②②口 |--①-|
口③③口 |②-③-|
口口口口
①口口①

口口口口
口口口口
口④④口 |④-⑤-|
⑥⑤⑤⑥ |--⑥-|
29
①口口① |①-②-|
口口口口
②<>②
口口口口

口③③口
④口口④ |--③-|
③口口③ |--④-|
⑤口口⑤ |--⑤-|
30
口口口口 |----|
①②③④ |①-②-|
口口口口 |③-④-|
口口口⑤ |--⑤-|
31
口口口口 |----|
口口口口 |①-②-|
③口②① |--③-|
口口口口

∨口口∨
|口口|
|口口|
④口口④ |--④-|
32
口口口口 |----|
口口口口 |----|
口口口口 |----|
口口口口 |----|
33
口口口口 |----|
口②②口 |----|
口③③口 |①---|
①口口① |②-③-|
34
口口口口 |--①-|
口口口口
口口口口
①口口①

②口口②
|口口| |--②-|
|口口| |----|
∧口口∧ |----|
35
①口口① |----|
口口口口 |----|
口口口口 |①-②-|
――②

口口口口
口口口④
口口口③
口口口④ |③-④-|
36
口口口口 |----|
口口口口 |----|
口口口口 |--①-|
①――<

口口口口
③口口口
②口口口
③口口口 |②-③-|
37
口口口口 |----|
口口口口 |----|
――① |--①-|
口口口口

口口口③
口口口②
口口口③
口口口口 |②-③-|
38
口口口口 |--①-|
口口口口
①――<
口口口口

③⑤⑤口
②口口口 |②-③-|
③口口口 |--④-|
口④④口 |--⑤-|
39
∨口口∨ |--①-|
②口口② |②---|
口①①口
口口口口

口口口口
③口口③
口口口口 |③-④-|
④④④④

口口口口
口口口口
⑤⑤⑤⑤
口口口口 |⑤-|

⑥⑥⑥⑥
||||
||||
∧∧∧∧ |⑥-|
40
①①①① |----|
口口口口 |----|
口口口口 |①-②-|
②②②②

∨∨∨∨
④④④④
③③③③
口口口口 |③-④-|
41
口③③口 |----|
①①①① |----|
口口口口 |①---|
口②②口 |②-③-|
42
②口口② |--①-|
|口口| |--②-|
∧口口∧
①口口①

③口口③
⑥口口⑥
口⑤⑤口 |--③-|
口④④口 |④-⑤⑥|
43
①①< |--①-|
口口口口 |----|
口口口口
口口口口

口②②口
口口口口
口口口口 |----|
口口口口 |②---|
44
口口口口 |①---|
②②②② |--②-|
①①①①
口口口口

③③③③
||||
|||| |----|
∧∧∧∧ |③---|
45
①①①① |----|
②②②② |----|
口口口口 |①---|
口口口口 |②---|
46
口口口口 |①---|
口口口口
∨∨∨∨
①①①①

口口口口
∨∨∨∨ |②-③-|
③③③③
②②②②

∨∨∨∨
⑤⑤⑤⑤
④④④④ |--④-|
口口口口 |⑤---|
47
口口口口 |----|
①①①① |----|
口②③口 |①---|
口口口口 |②-③-|
48
口∨∨口 |①---|
口||口 |--②-|
口||①
口②②口

∨口口∨
|口口|
|口口| |--③-|
④③③④ |④---|
49
口口口口 |----|
②口口② |----|
口口口口 |----|
①口口① |①-②-|
50
②②③③ |①---|
口口口口 |②-③-|
①口口①
口口口口

口口口口
④④⑤⑤
⑥⑥⑦⑦ |④-⑤-|
口口口口 |⑥-⑦-|
51
口口口口 |①-②-|
口口口口 |----|
口口口口 |----|
①①②② |----|
最終更新:2019年10月22日 00:26