アットウィキロゴ
Dragon Night [ 2 ]
SEKAI NO OWARI

BASIC

Level: 3
BPM: 124
Notes: 232

1
口口口口 |----|
口口口口 |----|
口口口口 |----|
口口口口 |----|
2
口口口口 |----|
口口口口 |----|
口口口口 |----|
口口口口 |----|
3
口口口口 |----|
口口口口 |----|
口口口口 |----|
口口口口 |----|
4
口口②口 |①---|
口口口口 |----|
①――< |②---|
口口口口 |----|
5
口口口口 |①---|
口口①口 |----|
③口②口 |②---|
口口口口 |③---|
6
口②口口 |①---|
口口口口 |----|
――① |②---|
口口口口 |----|
7
口口口口 |①---|
口①口口 |----|
口②口③ |②---|
口口口口 |③---|
8
口口②口 |①---|
①――< |----|
口口口口 |②---|
口口口口 |----|
9
口口口① |①---|
③口口口 |----|
口口②② |②---|
口口口口 |③---|
10
②口口口 |①---|
――① |----|
口口口口 |②---|
口口口口 |----|
11
口①口口 |①---|
口口口③ |----|
②②口口 |②---|
口口口口 |③---|
12
口口口口 |----|
口口口口 |----|
口口口口 |----|
口口口口 |----|
13
口口口口 |----|
口口口口 |----|
口口口口 |----|
口口口口 |----|
14
口口③② |①---|
口口口④ |②---|
口口口口 |③---|
①――< |④---|
15
口口口口 |①---|
口口①口 |②---|
口口③② |③---|
④口口口 |④---|
16
②③口口 |①---|
④口口口 |②---|
口口口口 |③---|
――① |④---|
17
口口口口 |①---|
口①口口 |②---|
②③④口 |③---|
口口口④ |④---|
18
口口口口 |①---|
口口口口 |----|
口口口口
①――<

口口口口
口口口口
――② |②---|
②口口口 |----|
19
口口口口 |①---|
①――< |----|
口口口①
口口口口

――②
②口口口
口口口口 |②---|
口口口口 |----|
20
口①②① |①---|
口③④口 |②---|
口口口口 |③---|
口口口口 |④---|
21
口口口口 |①---|
③口⑤③ |②---|
②口④② |③---|
①口口① |④-⑤-|
22
口口①< |①---|
口口口口
口口口口
口口口口

④②口
口③口口 |②-③-|
口②口口 |④---|
口口口口

口⑤口口
口口⑥口
口口⑤口
口口口口 |⑤-⑥-|
23
口口①< |①---|
口口口口
口口口口
口口口口

口④②口
口③口口 |②-③-|
口②口口 |④---|
口⑤⑤口 |⑤---|
24
③口口③ |①---|
②口口② |②---|
口①①口 |③---|
口口口口 |----|
25
口①口口 |①---|
口口②口 |②---|
口口口口
口口口口

口口口口
口口⑤口
口③④口 |③---|
口口口口 |④-⑤-|
26
口口①< |①---|
口口口口
口口口口
口口口口

④②口
口③口口 |②-③-|
口②口口 |④---|
口口口口

口⑤口口
口口⑥口
口口⑤口
口口口口 |⑤-⑥-|
27
口口①< |①---|
口口口口
口口口口
口口口口

口④②口
口③口口 |②-③-|
口②口口 |④---|
⑤口口⑤ |⑤---|
28
口③③口 |①---|
口②②口 |②---|
①口口① |③---|
口口口口 |----|
29
①口口① |①---|
②口口② |②---|
③口口③ |③---|
口口口口 |----|
30
口口口口 |①---|
①口口② |----|
口口口口 |②---|
口口口口 |----|
31
口口口口 |①---|
口口口口 |----|
①口口② |②---|
口口口口 |----|
32
口口口口 |①---|
口①②口 |----|
口口口口 |②---|
口口口口 |----|
33
口口口口 |①---|
口口口口 |----|
口①②口 |②---|
口口口口 |----|
34
口口口口 |①---|
①口口② |----|
口口口口 |②---|
口口口口 |----|
35
口口口口 |①---|
口①②口 |----|
口口口口 |②---|
口口口口 |----|
36
口口口口 |①---|
口口口口 |----|
①口口② |②---|
口口口口 |----|
37
口口口口 |①---|
②口口② |----|
口①①口 |②---|
口口口口 |----|
38
口①①口 |①---|
口②②口 |----|
口口口口 |②---|
口口口口 |----|
39
口口口口 |①---|
口口口口 |----|
口①①口 |②---|
口②②口 |----|
40
口口口口 |①---|
口口口口 |----|
②口口② |②---|
①口口① |----|
41
②口口② |①---|
①口口① |----|
口口口口 |②---|
口口口口 |----|
42
口①②口 |①---|
口③④口 |②---|
口口口口 |③---|
口口口口 |④---|
43
口口口口 |①---|
口口口口 |②---|
口①②口 |③---|
口③④口 |④---|
44
口口口口 |①---|
①口口① |----|
①口口① |----|
口口口口 |----|
45
口口口口 |----|
口口口② |----|
口口①口 |----|
口口口口 |①-②-|
46
口口①< |①---|
口口口口
口口口口
口口口口

④②口
③口口口 |②-③-|
口②口口 |④---|
口口口口

口⑤口口
口口口⑥
口口⑤口
口口口口 |⑤-⑥-|
47
口口①< |①---|
口口口口
口口口口
口口口口

口④②口
口③口口 |②-③-|
口②口口 |④---|
⑤口口⑤ |⑤---|
48
口③③口 |①---|
口②②口 |②---|
①口口① |③---|
口口口口 |----|
49
①口口① |①---|
②口口② |②---|
口口口口
口口口口

口口口口
口口口⑤
③口④③ |③---|
口口口口 |④-⑤-|
50
口口①< |①---|
口口口口
口口口口
口口口口

④②口
③口口口 |②-③-|
口②口口 |④---|
口口口口

口⑤口口
口口口⑥
口口⑤口
口口口口 |⑤-⑥-|
51
口口①< |①---|
口口口口
口口口口
口口口口

口④②口
口③口口 |②-③-|
口②口口 |④---|
⑤口口⑤ |⑤---|
52
口③③口 |①---|
口②②口 |②---|
①口口① |③---|
口④口口 |--④-|
53
口口口口 |①---|
③口口③ |----|
②口①② |②---|
口口口口 |③---|
54
①<>① |①---|
口口口口 |----|
口口口口 |----|
口口口口 |----|
55
口口口口 |----|
口口口口 |----|
口口口口 |----|
口口口口 |----|
56
口口口口 |----|
口口口口 |----|
口口口口 |----|
口口口口 |----|
57
口口口口 |----|
口口口口 |----|
口口口口 |----|
口口口口 |----|
58
①口口① |①---|
②口口口 |----|
口口口口 |②---|
口口口口 |----|
59
口口口口 |①---|
口口口① |----|
口②口口 |②---|
口口口口 |----|
60
口口口口 |①---|
口②口口 |----|
口口①口 |②---|
口口口口 |----|
61
②口口② |①---|
③口①③ |----|
口口口口 |②---|
口口口口 |③---|
62
口口口口 |①---|
口口口口 |----|
①口口① |----|
口口口口 |----|
最終更新:2019年10月22日 00:28