アットウィキロゴ
Dragon Night [ 2 ]
SEKAI NO OWARI

EXTREME

Level: 9
BPM: 124
Notes: 655

1
口口口口 |----|
口口口口 |----|
口口口口 |----|
口口口口 |----|
2
口口口口 |----|
口口口口 |----|
口口口口 |----|
口口口口 |----|
3
口①口口 |----|
口口口口 |----|
口口口口 |----|
口口口口 |---①|
4
口口①口 |①-②③|
口②③口 |--④⑤|
口④⑤口
口口口口

⑦口口⑦
口⑧⑨口
口口口口 |--⑥-|
⑥口口⑥ |⑦-⑧⑨|
5
口口口口 |--①-|
②口口② |②-③④|
①③④①
口口∧口

口⑥口口
口口口口
口口⑤口 |----|
口口口口 |⑤--⑥|
6
⑤口①⑤ |①-②-|
④⑥⑦④ |③-④-|
③⑧⑨③ |⑤-⑥⑦|
②口口② |-⑧⑨-|
7
⑤②③⑤ |①-②③|
④口口④ |-④--|
口⑥⑥口 |⑤---|
①⑥⑥① |⑥---|
8
口②③口 |①-②③|
口⑥⑦口 |--④⑤|
①⑧⑨① |--⑥⑦|
口④⑤口 |--⑧⑨|
9
⑥――< |--①②|
⑤口口④ |③④⑤⑥|
②口口③
①口口口

⑦⑧口口
口口口口
口口口口 |----|
口口口口 |⑦--⑧|
10
⑥口①⑥ |①-②③|
④⑨口④ |--④-|
口⑦⑧口 |⑤-⑥-|
⑤②③⑤ |⑦⑧-⑨|
11
④口口⑥ |①-②-|
③口①⑤ |③④⑤⑥|
口口口口
②口口②

口口口口
⑦口⑦口
口⑦口口 |----|
⑦口⑦口 |--⑦-|
12
口口口∨ |①---|
口口口| |----|
口口口| |----|
口口口① |----|
13
①口口② |--①-|
口③口口 |②-③-|
口口口口
口口口①

⑧口口口
口口④口
⑤口口⑥ |④-⑤-|
口⑦口口 |⑥-⑦⑧|
14
口①―< |①-|
口口口口
口口口口
口口口口

口②口口 |②③|
―③②
口口口口
口口口口

口口口口
口口④口 |--④⑤|
④⑤―<
口口口口

口口口口
口口口口
口⑥口口 |--⑥⑦|
―⑦⑥

口口口口
⑧⑨―<
口口口口
口口⑧口 |--⑧⑨|
15
口口口口 |--①②|
口①口口
―②①
口口口口

口口口口
口口口口 |--③④|
口口③口
③④―<

口口口口
口口口口
⑥口口口 |--⑤-|
口⑤口口 |---⑥|
16
口口口② |①-②-|
口口口②
口①口口
口口口口

口口③口
④⑤③口 |③-④⑤|
口|口口
口∧口口

口⑧⑨口
口⑥口口
口口⑥⑦ |--⑥-|
口口⑥⑦ |⑦-⑧⑨|
17
①口口口 |-①②③|
③口口② |④⑤⑥⑦|
口⑤④口
口⑦⑥口

⑨口口⑨
|⑧⑧|
∧口口∧ |⑧---|
口口口口 |⑨-|

⑩口口⑩
口口口口
口口口口
口口口口 |⑩-|
18
口⑥⑦口 |①-②③|
口②③口 |--④⑤|
口④⑤口 |--⑥⑦|
①⑧⑨① |--⑧⑨|
19
口口口口 |--①②|
口①②口 |--③④|
口③④<
口口口口

口口口口
口口口口
口口⑤口 |----|
⑥口口口 |⑤--⑥|
20
口④④口 |①-②③|
口口口③ |--④-|
①口口②
口口口口

⑧口口口
口⑦⑦⑨
口⑥⑥口 |⑤-⑥-|
口⑤⑤口 |⑦-⑧⑨|
21
口口口② |①-②③|
③⑤⑥口 |④-⑤⑥|
①口口④
口口口口

口⑧⑨⑩
口口口口
口⑧<口 |⑦---|
⑦口口⑦ |⑧-⑨⑩|
22
口口口口 |①---|
口口口口
口①口①
口口口口

②口口口
口口③④ |②-③④|
②―<口
口口口口

口口口⑤
⑥口口口
⑤口口口 |⑤---|
⑥<⑦⑧ |⑥-⑦⑧|
23
③④口口 |①---|
口口①⑤ |②-③④|
⑥②②⑥ |⑤---|
①⑦⑧⑤ |⑥-⑦⑧|
24
口口口③ |①②-③|
④⑥⑦⑤ |④⑤⑥⑦|
口①②口
口口口口

⑩⑧⑨⑩
口口口口
口口口口 |⑧⑨--|
口口口口 |--⑩-|
25
口④④口 |①-②-|
①③③① |③-④-|
口口口口
②口口②

⑤口口⑤
⑦⑧口⑥
⑤口口⑤ |⑤---|
――⑥ |⑥-⑦⑧|
26
②②④③ |①---|
|口口口 |②-③④|
∧口口口
①口口①

⑤口口口
口∨⑦⑧
口⑥⑤口 |⑤---|
口⑥口口 |⑥-⑦⑧|
27
④③②口 |①---|
口口口口 |②-③④|
口①②口
口口口①

口口口口
口⑦⑧口
⑤口口口 |⑤---|
口口⑥⑥ |⑥-⑦⑧|
28
口①②④ |①②③④|
⑤口口⑥ |⑤⑥⑦⑧|
③口口口
⑦口口⑧

口⑪⑪口
口口口口
口⑨⑩口 |⑨⑩--|
口口口口 |--⑪-|
29
口口口口 |①-②-|
④①①④ |③-④-|
④②②④
口③③口

⑤口口⑤
口⑥⑦口
口⑧⑨口 |--⑤-|
口口口口 |⑥⑦⑧⑨|
30
④②②口 |①-②-|
口⑤口口 |③-④⑤|
口口口③
①口口①

口⑨⑨口
⑧口口⑧
⑥口口口 |⑥-⑦-|
口⑦⑦口 |⑧-⑨-|
31
②口口② |①-②-|
口口③口 |③-④-|
口口口①
④口口④

口口口口
口口口⑤
⑥⑨⑩⑥ |⑤-⑥-|
口⑦⑧口 |⑦⑧⑨⑩|
32
②④口② |①-②-|
口口③⑤ |③-④⑤|
口口口口
①口口①

⑨口口⑨
口口口口
⑧⑥口⑧ |⑥-⑦-|
口口口⑦ |⑧-⑨-|
33
⑦⑩⑨⑦ |①-②-|
⑥口③① |③-④⑤|
口⑤⑧口 |⑥-⑦-|
④②②④ |⑧⑨⑩-|
34
口口口口 |①-②-|
②④口② |③-④⑤|
口口⑤③
①口口①

⑦口口⑦
⑨口口⑨
口口口口 |⑥-⑦-|
⑧⑥口⑧ |⑧-⑨-|
35
口②②口 |①-②-|
口口③口 |③-④-|
口口口①
口④④口

口⑦⑧口
口⑨⑩⑤
口口口口 |⑤-⑥-|
⑥口口⑥ |⑦⑧⑨⑩|
36
①口口① |①-②-|
口口口⑤ |③-④⑤|
②④口②
口口③口

⑦⑥口⑦
口口口口
⑨口口⑨ |⑥-⑦-|
⑧口口⑧ |⑧-⑨-|
37
③口口③ |①---|
①口口① |--②-|
④⑦⑧④ |③-④-|
②⑤⑥② |⑤⑥⑦⑧|
38
口口②③ |①-②③|
①――<
口口口口
口口口口

⑥――<
⑥口⑤口 |-④-⑤|
口口⑦⑧ |⑥-⑦⑧|
口口口④

口口口⑨
口口口口
口口口口
口口⑩口 |-⑨-⑩|
39
①口④口 |①-②③|
口口③② |-④-⑤|
口口口口
①―<⑤

口口口⑦
口口口⑧
⑥――< |⑥-⑦⑧|
⑥口口口

口口口口
口口口口
口口⑨⑩
口口口口 |-⑨-⑩|
40
口①②口 |①②③④|
口③④口 |⑤⑥⑦⑧|
①⑦⑧口
口⑤⑥口

⑨口口⑩
⑬口口⑭
⑪口口⑫ |⑨⑩⑪⑫|
⑮口口⑯ |⑬⑭⑮⑯|
41
口①②口 |①②③④|
口⑤⑥口 |⑤⑥⑦⑧|
口③④口
口⑦⑧口

⑬⑬<
⑨口口⑩
⑪口口⑫ |⑨⑩⑪⑫|
口口口口 |⑬-|

口⑭⑭口
口口口口
口口口口
口口口口 |⑭-|
42
④口⑥② |①②-③|
口口口口 |④-⑤⑥|
口口口口
③口⑤①

⑩⑧口⑩
口口口口
口口口口 |-⑦⑧-|
⑨⑦口⑨ |⑨-⑩-|
43
口④②口 |①②-③|
⑤口口⑥ |④-⑤⑥|
口口口口
口③①口

口口口口
口⑩⑩口
口口口口 |-⑦⑧-|
⑦⑨⑨⑧ |⑨-⑩-|
44
∨口口∨ |①---|
|口口| |----|
①口口① |----|
口口口口 |----|
45
口∨口口 |----|
口|③② |----|
①①①① |----|
口口口口 |①-②③|
46
口口口口 |①---|
口口口口
口①口口
口口①口

口口④③
②口口口 |②-③④|
口口口口
②―<口

口口口口
口口口口
口口⑤口 |⑤---|
⑤口口口

⑦⑧口口
口口口⑥
口>―⑥
口口口口 |⑥-⑦⑧|
47
口口③④ |①---|
⑤⑤口口 |②-③④|
①⑦⑧① |⑤---|
⑥②②⑥ |⑥-⑦⑧|
48
口①②口 |①②-③|
⑩④⑤③ |④⑤⑥⑦|
⑩⑧⑨口 |⑧⑨--|
口⑥⑦口 |--⑩-|
49
口①③∨ |①-②-|
口①③⑤ |③-④-|
口②④⑤ |⑤---|
口②④口

⑥口⑧⑦
口口口⑥
⑥<口口
口口口口 |⑥-⑦⑧|
50
③④口口 |①---|
口口①口 |②-③④|
①>②②
口口口口

口口>⑥
口⑤口⑥
⑦⑧⑤口 |⑤---|
口口口口 |⑥-⑦⑧|
51
口口口① |①---|
③④口口 |②-③④|
口口口口
①②②口

口口口口
口口口口
⑤⑦⑧口 |⑤---|
⑥口口⑥ |⑥-⑦⑧|
52
口①②口 |①②-③|
口④⑤③ |④⑤⑥⑦|
口⑧⑨口 |⑧⑨--|
⑩⑥⑦⑩ |--⑩-|
53
①口口① |①---|
|口口|
∧口口∧
口口口口

②口口②
③――< |--②-|
――④ |③---|
口口口口 |④---|
54
口口②② |①-②-|
①口口④ |--③④|
口口③①
①―①<

口口口⑦
口口⑤口
口口口⑧ |⑤-⑥-|
口⑥口口 |⑦-⑧-|
55
口口③③ |--①-|
口②⑤④ |--②-|
⑦⑥①口 |--③-|
口口口口 |④⑤⑥⑦|
56
口口④口 |①-②-|
口①口口 |--③④|
口口③②
口口口口

口口口⑤
口⑥⑧口
口口口口 |⑤-⑥-|
口口口⑦ |⑦-⑧-|
57
口口④③ |--①-|
口⑦⑧② |--②③|
口⑥口① |④-⑤-|
口口口⑤ |⑥⑦⑧-|
58
口口口① |①-②-|
口口④口 |--③④|
口口②③
①口口口

⑦⑦口口
口口口⑤
口口口口 |⑤-⑥-|
⑥⑥⑧⑧ |⑦-⑧-|
59
口④⑤口 |--①-|
③③①① |--②-|
⑥口口⑦ |--③-|
②②口口 |④⑤⑥⑦|
60
②口口② |①-②-|
口口口口 |--③④|
口③④口
口①①口

⑧口口⑧
口⑦口⑤
口口口口 |⑤-⑥-|
⑥口口⑥ |⑦-⑧-|
61
口口口口 |①---|
口口①口 |--②-|
口口口口
②口口②

③口口③
口口⑧口
④⑥⑦④ |③-④-|
口⑤口口 |⑤⑥⑦⑧|
62
口①①口 |①---|
口口口口 |----|
口口口口 |----|
口口口口 |----|
最終更新:2019年10月22日 00:29