アットウィキロゴ
robin [ 2 ]
S-C-U

BASIC

Level: 4
BPM: 190
Notes: 245

1
口口口口 |----|
口口口口 |----|
口口口口 |----|
口口口口 |----|
2
口口口口 |①---|
口口口口
口口口口
①<口口

口口口口
口口口口 |--②-|
③<口口 |----|
②口口② |③---|
3
口口口③ |--①-|
口②口口 |----|
①口口① |②---|
口口口口 |③---|
4
①―<口 |①---|
口口口口 |----|
口口口口 |----|
口口口口 |----|
5
①口口口 |----|
口口口口 |----|
口口口口 |----|
口口口口 |①---|
6
口口口口 |①---|
口口口口
口口口口
口口>①

口口口口
口口口口 |--②-|
口口>③ |----|
②口口② |③---|
7
③口口口 |--①-|
口口②口 |----|
①口口① |②---|
口口口口 |③---|
8
口>―① |①---|
口口口口 |----|
口口口口 |----|
口口口口 |----|
9
口口口① |----|
口口口口 |----|
口口口口 |----|
口口口口 |①---|
10
口口口口 |①---|
口口口口 |②---|
③口口④ |③---|
口①②口 |④---|
11
口口口口 |①---|
①口口② |②---|
口③④口 |③---|
口口口口 |④---|
12
口口口口 |①---|
口口口口 |----|
口口口口
口①―<

口口口口
口口口口
口口口口 |--②-|
口②口口 |----|
13
口口口口 |①---|
―①口 |----|
口口口口
口口口口

口口口口
口口②口
口口口口 |--②-|
口口口口 |----|
14
口口口口 |①---|
口口口口 |②---|
③口口④ |③---|
口①②口 |④---|
15
④<口口 |①---|
①口口② |②---|
口③口口 |③---|
口口口口 |--④-|
16
①口口口 |----|
口口>① |①---|
口口口口
口口口口

口口口口
口口口②
②<口口 |--②-|
口口口口 |----|
17
口口口口 |①---|
口口口口 |----|
①口口口
口>―①

口口口口
口口口口
口口口口 |----|
口口口② |②---|
18
口③③口 |①---|
口①②口 |②---|
口口口口 |----|
口口口口 |--③-|
19
口口口口 |--①-|
口①②口 |②---|
口口口口 |③---|
③口口④ |④---|
20
口口口口 |①---|
口口口口 |②---|
①口口② |----|
口口口口 |----|
21
口口口口 |----|
口口口口 |----|
口口口口 |----|
口口口口 |----|
22
口③③口 |①---|
口①②口 |②---|
口口口口 |----|
口口口口 |--③-|
23
口口口口 |--①-|
口①②口 |②---|
口口口口 |③---|
③口口④ |④---|
24
口口口口 |①---|
口口口口
口口口口
口①<口

口口口口
口口口口 |--②-|
口口>②
口②口口

口口口口
口③<口
口口口③ |----|
口口口口 |③---|
25
口口>① |--①-|
口①口口 |----|
口口口口
口口口口

口口口②
口口口口
口口口口 |②---|
口②③口 |③---|
26
口③③口 |①---|
口①②口 |②---|
口口口口 |----|
口口口口 |--③-|
27
口口口口 |--①-|
口①②口 |②---|
口口口口 |③---|
③口口④ |④---|
28
口口口口 |①---|
①口口② |②---|
口口口口 |----|
口口口口 |----|
29
口口口口 |----|
口口口口 |----|
口口口口 |----|
口口口口 |----|
30
口③③口 |①---|
口①②口 |②---|
口口口口 |----|
口口口口 |--③-|
31
口口口口 |--①-|
口①②口 |②---|
口口口口 |③---|
③口口④ |④---|
32
口口口口 |①---|
口口口口
口口口口
口①<口

口口口口
口口口口 |--②-|
口口>②
口②口口

口口口口
口③<口
口口口③ |----|
口口口口 |③---|
33
口口>① |--①-|
口①口口 |----|
口口口口
口口口口

口口口②
口口口口
口②③口 |②---|
口口口口 |③---|
34
口①②口 |①---|
口③口∨ |②---|
口口口④ |③---|
口口口口 |--④-|
35
口口口口 |----|
口口口口 |----|
口口口① |----|
口口口口 |①---|
36
口①②口 |①---|
口③口口 |②---|
口口∨口 |③---|
口口④口 |--④-|
37
口口口口 |----|
口口口口 |----|
口口口口 |----|
口口①口 |①---|
38
口①②口 |①---|
口③∨口 |②---|
口口④口 |③---|
口口口口 |--④-|
39
口口口口 |----|
口口口口 |----|
口口①口 |----|
口口口口 |①---|
40
①口口② |①---|
③口口④ |②---|
口口口口 |③---|
口口口口 |④---|
41
口口口口 |①---|
口口口口 |②---|
①口口② |③---|
③口口口 |----|
42
口②①口 |①---|
∨口③口 |②---|
④口口口 |③---|
口口口口 |--④-|
43
口口口口 |----|
口口口口 |----|
①口口口 |----|
口口口口 |①---|
44
口②①口 |①---|
口口③口 |②---|
口∨口口 |③---|
口④口口 |--④-|
45
口口口口 |----|
口口口口 |----|
口口口口 |----|
口①口口 |①---|
46
口②①口 |①---|
口∨③口 |②---|
口④口口 |③---|
口口口口 |--④-|
47
口口口口 |----|
口口口口 |----|
口①口口 |----|
口口口口 |①---|
48
②②①① |①---|
口口口口 |--②-|
口口口口 |----|
口口③③ |③---|
49
口口口口 |--①-|
口③②口 |----|
口⑤④口 |②-③-|
①①口口 |④-⑤-|
50
口口口口 |----|
口口口口 |----|
口口口口 |----|
口口口口 |----|
51
①②口口 |①---|
口口④③ |②---|
口口口口 |③---|
口口口口 |④---|
52
口口口口 |①---|
口口口口 |②---|
①②口口 |③---|
口口④③ |④---|
53
口口④口 |①---|
口③口口 |②---|
口口②口 |③---|
口①口口 |④---|
54
①口口口 |①---|
口口③口 |----|
口口口口 |②---|
口口口② |③---|
55
口口口① |----|
口③口口 |①---|
口口口口 |②---|
②口口口 |③---|
56
①口口口 |----|
口口③口 |①---|
口口口口 |②---|
口口口② |③---|
57
口①②口 |①---|
③口口④ |②---|
口口口口 |③---|
口口口口 |④---|
58
口口口口 |①---|
口口②口 |----|
①口口口 |----|
口口口口 |②---|
59
①②口口 |①---|
口口④③ |②---|
口口口口 |③---|
口口口口 |④---|
60
口口口口 |①---|
口口口口 |②---|
①②口口 |③---|
口口④③ |④---|
61
口口④口 |①---|
口③口口 |②---|
口口②口 |③---|
口①口口 |④---|
62
①口口口 |①---|
口口③口 |----|
口口口口 |②---|
口口口② |③---|
63
口口口① |----|
口③口口 |①---|
口口口口 |②---|
②口口口 |③---|
64
①口口口 |----|
口口③口 |①---|
口口口口 |②---|
口口口② |③---|
65
口①②口 |①---|
③口口④ |②---|
口口口口 |③---|
口口口口 |④---|
66
口口口口 |①---|
口③口口 |----|
①口②口 |②---|
口口口口 |③---|
67
①――< |①---|
口口口口 |----|
口口口口 |----|
口口口口 |----|
68
口口口口 |----|
口口口口 |----|
口口口口 |----|
口口口口 |----|
69
①口口① |①---|
口口口口 |----|
口口口口 |----|
口口口口 |----|
70
口口口口 |①---|
口①口口 |----|
口口②口 |②---|
口口口口 |----|
71
口口口口 |①---|
口口口口 |----|
口口口口 |----|
口①口口 |----|
72
口口口口 |①---|
口口口口 |----|
口口②口 |②---|
口口口① |----|
73
口口口口 |①---|
口①口口 |----|
口口口口 |----|
口口口口 |----|
74
口口口口 |①---|
口口口口 |----|
口①③口 |②---|
口②口口 |③---|
75
口口口口 |①---|
――① |----|
口口口口 |----|
口口口口 |----|
76
口口口口 |----|
口口口口 |----|
口口口口 |----|
口口口口 |----|
77
口口口口 |①---|
口口口① |----|
口口口口
口①―<

口口口口
口口口口
口口口口 |--②-|
口②口口 |----|
78
口口口口 |①---|
口口口口 |----|
―①口
口口口口

口口口口
口口口口
口口②口 |--②-|
口口口口 |----|
79
①口口② |①---|
③口口④ |②---|
口口口口 |③---|
口口口口 |④---|
80
口口口口 |①---|
口口口口 |②---|
①口口② |③---|
③口口④ |④---|
81
口①①口 |①---|
口②②口 |②---|
口③③口 |③---|
口④④口 |④---|
82
口口口口 |①---|
①口口① |②---|
②口口② |----|
口口口口 |----|
最終更新:2019年10月22日 00:35