アットウィキロゴ
robin [ 2 ]
S-C-U

ADVANCED

Level: 6
BPM: 190
Notes: 420

1
口口口口 |----|
口口口口 |----|
口口口口 |----|
口口口口 |----|
2
口口口口 |①---|
口口口口
口口口口
①―<口

口口口口
口口口口 |--②-|
口>―③ |----|
②口口② |③---|
3
口口口④ |--①-|
口③②口 |--②-|
①口口① |③---|
口口口口 |④---|
4
∨∨口口 |①---|
||口口 |----|
||口口 |----|
①①口口 |----|
5
口口口口 |----|
口口口口 |----|
口口口口 |----|
①①口口 |①---|
6
口>―① |①---|
口口口口
口口口口
口口口口

②口口②
③―<口 |--②-|
口口口口 |----|
口口口口 |③---|
7
口口口口 |--①-|
①口口① |--②-|
口②③口 |③---|
④口口口 |④---|
8
口口∨∨ |①---|
口口|| |----|
口口|| |----|
口口①① |----|
9
口口口口 |----|
口口口口 |----|
口口口口 |----|
口口①① |①---|
10
口①①口 |①---|
⑤口口③ |②-③-|
口口口口 |--④-|
②口口④ |⑤---|
11
⑤―<④ |①-②-|
口①②口 |--③-|
口口口口 |--④-|
③口口口 |--⑤-|
12
①口口口 |----|
口口口口 |----|
口口口口 |--①-|
口口口口 |----|
13
口口口口 |①---|
口>―① |----|
口口口口
口口口口

口口口口
口口口②
口口口口 |--②-|
口口口口 |----|
14
口①①口 |①---|
③口口⑤ |②-③-|
④口口② |--④-|
口口口口 |⑤---|
15
⑤―<④ |①-②-|
口①②口 |--③-|
口口口口 |--④-|
③口口口 |--⑤-|
16
①口口口 |----|
口>―① |①---|
口口口口
口口口口

口口口口
口口口②
②―<口 |--②-|
口口口口 |----|
17
口口口口 |①---|
口口口口 |----|
①口口口
――①

口口口口
口口口口
口口口口 |----|
口口口② |②---|
18
⑤③口⑤ |①---|
口①②口 |②---|
口②①口 |③---|
口口④口 |④-⑤-|
19
口口③口 |--①-|
口②①口 |②---|
口①②口 |③---|
④口口口 |④---|
20
③①口① |①---|
口口口④ |②---|
②口②口 |③-④-|
⑤口口口 |--⑤-|
21
⑥口口口 |①-②-|
口④①口 |③-④-|
②口口⑤ |--⑤-|
口口口③ |--⑥-|
22
⑤口③⑤ |①---|
口②①口 |②---|
口①②口 |③---|
口④口口 |④-⑤-|
23
口③口口 |--①-|
口②①口 |②---|
口①②口 |③---|
口口④口 |④---|
24
口口①口 |①---|
口口∧口
口口口口
口口口口

口口②口
口口口口 |--②-|
口口>②
口口口口

口口口口
口口口口
口∨口③ |----|
口③口口 |③---|
25
口口口口 |--①-|
①<口口 |----|
口口口口
口①口口

口口口口
②口口②
口口口③ |②---|
口口口口 |③---|
26
⑤③口⑤ |①---|
口①②口 |②---|
口②①口 |③---|
口口④口 |④-⑤-|
27
口口③口 |--①-|
口②①口 |②---|
口①②口 |③---|
④口口口 |④---|
28
③①口① |①---|
口口口④ |②---|
②口②口 |③-④-|
⑤口口口 |--⑤-|
29
⑥口口口 |①-②-|
口④①口 |③-④-|
②口口⑤ |--⑤-|
口口口③ |--⑥-|
30
⑤口③⑤ |①---|
口②①口 |②---|
口①②口 |③---|
口④口口 |④-⑤-|
31
口③口口 |--①-|
口②①口 |②---|
口①②口 |③---|
口口④口 |④---|
32
口口①口 |①---|
口口∧口
口口口口
口口口口

口口②口
②<口口 |--②-|
口口口口
口口口口

口口口口
③口口口
口∨口口 |----|
口③口口 |③---|
33
口口口口 |--①-|
口口口口 |----|
口口>①
口①口口

口口口口
口③②口
口②③② |②---|
口口口口 |③---|
34
口口①口 |①---|
②口⑤口 |②-③-|
口口口③ |--④-|
口④口口 |--⑤-|
35
口①口口 |①---|
口⑤口② |②-③-|
③口口口 |--④-|
口口④口 |--⑤-|
36
口口①④ |①---|
②口口口 |②-③-|
口口③口 |--④-|
⑤口口口 |--⑤-|
37
④①口口 |①---|
口口口② |②-③-|
口③口口 |--④-|
口口口⑤ |--⑤-|
38
口①口口 |①---|
口⑤口② |②-③-|
③口口口 |--④-|
口口④口 |--⑤-|
39
口口①口 |①---|
②⑥口口 |②-③-|
口口⑤③ |--④-|
口④口口 |⑤-⑥-|
40
①④④① |①---|
②口口② |②-③-|
⑤口口⑤ |--④-|
③口口③ |⑤---|
41
③口口③ |①-②-|
口①①口 |--③-|
口口口口 |----|
口②②口 |----|
42
口口①口 |①---|
②口⑤口 |②-③-|
口口口③ |--④-|
口④口口 |--⑤-|
43
口①口口 |①---|
口⑤口② |②-③-|
③口口口 |--④-|
口口④口 |--⑤-|
44
口口①④ |①---|
②口口口 |②-③-|
口口③口 |--④-|
⑤口口口 |--⑤-|
45
④①口口 |①---|
口口口② |②-③-|
口③口口 |--④-|
口口口⑤ |--⑤-|
46
口①口口 |①---|
口⑤口② |②-③-|
③口口口 |--④-|
口口④口 |--⑤-|
47
口口①口 |①---|
②⑥口口 |②-③-|
口口⑤③ |--④-|
口④口口 |⑤-⑥-|
48
口口①① |①-②-|
口口②② |--③-|
③③⑤⑤ |④---|
④④⑥⑥ |⑤-⑥-|
49
①①⑤③ |--①-|
②②⑤③ |②---|
④⑥口口 |③-④-|
④⑥口口 |⑤-⑥-|
50
口口口口 |----|
口口口口 |----|
口口口口 |----|
口口口口 |----|
51
①口口① |①---|
口②③口 |②-③-|
口口口口
口口口口

⑤口口⑤
口口口口
口口口口 |--④-|
④口口口 |--⑤-|
52
口口口口 |--①-|
口①⑤口 |②-③-|
口口②口 |--④-|
口③口④ |--⑤-|
53
口③口口 |①-②-|
口口口④ |--③-|
⑤①口口 |--④-|
口口②⑥ |⑤-⑥-|
54
④⑤⑥⑦ |--①-|
③②①口 |②-③-|
口口口口 |④-⑤-|
口口口口 |⑥-⑦-|
55
口口口口 |----|
口口口口 |①---|
口①①口 |②-③-|
②③④⑤ |④-⑤-|
56
②③④⑤ |--①-|
口①①口 |--②-|
口口口口 |③-④-|
口口口口 |⑤---|
57
⑤口口⑤ |①---|
①②口① |②-③-|
口口③口 |--④-|
口④④口 |--⑤-|
58
口口口口 |----|
口口口口 |----|
口口口② |--①-|
①口口口 |②---|
59
①口口① |①---|
口②③口 |②-③-|
口口口口
口口口口

⑤口口⑤
口口口口
口口口口 |--④-|
④口口口 |--⑤-|
60
口口口口 |--①-|
口①⑤口 |②-③-|
口口②口 |--④-|
口③口④ |--⑤-|
61
口③口口 |①-②-|
口口口④ |--③-|
⑤①口口 |--④-|
口口②⑥ |⑤-⑥-|
62
④⑤⑥⑦ |--①-|
③②①口 |②-③-|
口口口口 |④-⑤-|
口口口口 |⑥-⑦-|
63
口口口口 |----|
口口口口 |①---|
口①①口 |②-③-|
②③④⑤ |④-⑤-|
64
②③④⑤ |--①-|
口①①口 |--②-|
口口口口 |③-④-|
口口口口 |⑤---|
65
⑤口口⑤ |①---|
①②口① |②-③-|
口口③口 |--④-|
口④④口 |--⑤-|
66
口口口口 |----|
口口口口 |----|
口②口口 |①---|
①口口口 |②---|
67
口口①口 |①---|
口口|口 |----|
口口|口 |----|
口口∧口 |----|
68
①口口口 |①---|
口②口口 |②---|
③口口口 |③---|
口④口口 |④---|
69
口口①口 |①---|
①口口口 |----|
口口口口 |----|
口口口口 |----|
70
口口口∨ |①---|
口口∨| |----|
口口|| |②---|
口口②① |----|
71
口口口口 |①---|
口口口口 |----|
口∨口口
口①口口

口口口口
口口口口
口口口口 |②---|
口②②② |----|
72
∨口口口 |①---|
|∨口口 |----|
||口口 |②---|
①②口口 |----|
73
口口口口 |①---|
口口口口 |----|
口口∨口
口口①口

口口口口
口口口口
口口口口 |②---|
②②②口 |----|
74
口①①口 |①---|
③③口口 |----|
②②②口 |②---|
口口口口 |③---|
75
①――< |①---|
口口③② |②---|
口口口④ |③---|
口口口口 |④---|
76
口口口口 |①---|
口口口口 |②---|
口口①口 |③---|
口④③② |④---|
77
①口口口 |①---|
口∨∨口 |----|
口①①口
口口口口

口口口口
口口口口
口②②口 |--②-|
口口口口 |----|
78
口口口口 |①---|
∨口口∨ |----|
①口口①
口口口口

口口口口
口口口口
②口口② |--②-|
口口口口 |----|
79
②口口① |①---|
④口口③ |②---|
口口口口 |③---|
口口口口 |④---|
80
口口口口 |①---|
口口口口 |②---|
②口口① |③---|
④口口③ |④---|
81
口②①口 |①-②-|
口④③口 |③-④-|
口⑥⑤口 |⑤-⑥-|
口⑧⑦口 |⑦-⑧-|
82
口口口口 |①-②-|
口口口① |③---|
②口口口 |----|
口口口③ |----|
最終更新:2019年10月22日 00:36