アットウィキロゴ
Love♥km [ 2 ]
dj TAKA feat. REN

BASIC

Level: 4
BPM: 184
Notes: 229

1
口口口口 |----|
口口口口 |----|
口口口口 |----|
口口口口 |----|
2
口口口口 |①---|
口口口口 |----|
口口②口 |②---|
口口①口 |----|
3
口口口③ |①---|
口①④② |----|
口口口口 |②-③-|
口口口口 |--④-|
4
口口口口 |①---|
口口口口 |----|
①②口口 |②---|
口①口口 |----|
5
③口口口 |①---|
②④①口 |----|
口口口口 |②-③-|
口口口口 |--④-|
6
口口口口 |①---|
口口口口 |----|
口口②① |②---|
口口①口 |----|
7
口口口③ |①---|
口①④② |----|
口口口口 |②-③-|
口口口口 |--④-|
8
口口口口 |①---|
口口口口 |----|
①②口口 |②---|
口①口口 |----|
9
口口口口 |①---|
②④③① |②---|
口口口口 |③---|
口口口口 |④---|
10
口口口口 |①---|
口口口① |②---|
口口>②
口口口口

口口口口
口口口口
口口口③ |----|
口口口口 |③---|
11
口口口口 |①---|
①口口口 |②---|
②<口口
口口口口

口口口口
口口口口
③口口口 |----|
口口口口 |③---|
12
口口口口 |①---|
口口口口 |②---|
口口口①
口口>②

口口口口
口口口口
口口口口 |----|
口口口③ |③---|
13
口口口口 |①---|
口口口口 |②---|
①口口口
②<口口

口口口口
口口口口
口口口口 |----|
③口口口 |③---|
14
口口口③ |①---|
口口④口 |②---|
口口口② |③---|
口口①口 |④---|
15
口④口口 |①---|
③口口口 |②---|
口①口口 |③---|
②口口口 |④---|
16
口口口口 |①---|
口口>①
口口>①
口口口口

口口口口
③<口② |--②-|
③<口② |③---|
口口口口

口口口口
④口口口
④口口口
口口口口 |--④-|
17
口口口口 |①---|
口口口口 |②---|
口口口口 |③---|
②③③① |----|
18
口∨∨口 |①---|
口||口 |----|
口①①口
口口口口

口口口口
口口口口
口②②口 |----|
口口口口 |②---|
19
∨口口∨ |①---|
|口口| |----|
①口口①
口口口口

口口口口
口口口口
②口口② |----|
口口口口 |②---|
20
口>―① |①---|
口口口口 |----|
口口口口
口口口口

口口口②
口口口口
口口口口 |----|
口口口口 |②---|
21
口口口口 |①---|
①―<口 |----|
口口口口
口口口口

口口口口
②口口口
口口口口 |----|
口口口口 |②---|
22
口口口口 |①---|
口口口口 |----|
口>―①
口口口口

口口口口
口口口口
口口口② |----|
口口口口 |②---|
23
口口口口 |①---|
口口口口 |----|
口口口口
①―<口

口口口口
口口口口
口口口口 |----|
②口口口 |②---|
24
口口口① |①---|
口口口| |----|
口口口∧
口口口口

口口口②
口口口口
口口口口 |----|
口口口口 |②---|
25
口口口口 |①---|
∨口口口 |----|
|口口口
①口口口

口口口口
口口口口
口口口口 |----|
②口口口 |②---|
26
口∨∨口 |①---|
口||口 |----|
口①①口
口口口口

口口口口
口口口口
口②②口 |----|
口口口口 |②---|
27
①口口口 |①---|
口口②口 |----|
口口口口 |②---|
口口口口 |----|
28
口口口口 |①---|
口②口口 |----|
①口口口 |②---|
口③口口 |③---|
29
口口口① |①---|
口②口口 |----|
口口口口 |②---|
口口口口 |----|
30
口口口口 |①---|
口口②口 |----|
口口口① |②---|
口口③口 |③---|
31
口①①口 |①---|
口口口口 |----|
②口口② |②---|
口口口口 |----|
32
口口口口 |①---|
②①①② |----|
口③③口 |②---|
口口口口 |③---|
33
口口口④ |①---|
口口③口 |②---|
口口口② |③---|
口口①口 |④---|
34
①口口口 |①---|
口②口口 |②---|
③口口口 |③---|
口④口口 |④---|
35
口口口口 |----|
口口口口 |----|
口口口口 |----|
口口口口 |----|
36
口口口口 |①---|
口口口口 |----|
口②口口 |②---|
①口①口 |----|
37
口②口口 |①---|
①口口口 |----|
口口口口 |②---|
口口口口 |----|
38
口口口③ |①---|
口口②口 |②---|
口①口口 |③---|
口口口口 |----|
39
口口口口 |①---|
口口口① |----|
口口②② |②---|
口口口口 |----|
40
口口口口 |①---|
口口口口 |②---|
②口口③ |③---|
口①①口 |----|
41
口口口口 |①---|
②口口③ |②---|
口①①口 |③---|
口口口口 |----|
42
口口口口 |①---|
③口口口 |②---|
②④口口 |③---|
口①口口 |④---|
43
口口口③ |①---|
口口②口 |②---|
口口①口 |③---|
口口口口 |----|
44
口口口口 |①---|
口口口口 |----|
口②口口 |②---|
①口①口 |----|
45
口②口口 |①---|
①口口口 |----|
口口口口 |②---|
口口口口 |----|
46
口口口③ |①---|
口口②口 |②---|
口①口口 |③---|
口口口口 |----|
47
口口口口 |①---|
口口口① |----|
口口②② |②---|
口口口口 |----|
48
口口口口 |①---|
口口口口 |②---|
②口口③ |③---|
口①①口 |----|
49
口口口口 |①---|
②口口③ |②---|
口①①口 |③---|
口口口口 |----|
50
口口口口 |①---|
口①①口 |②---|
口②②口 |③---|
③④口口 |④---|
51
口口口口 |①---|
口口口④ |②---|
口口口③ |③---|
口口①② |④---|
52
――① |①---|
口口口口 |----|
口口口口 |----|
口口口口 |----|
53
口口口① |----|
口口口口 |----|
口口口口 |①---|
口口口口 |----|
54
口口口口 |①---|
①―<口 |----|
口口口口
口口口口

口口口口
②口口口
口口口口 |----|
口口口口 |②---|
55
①口口口 |----|
口②口口 |①---|
口口③口 |②---|
口口口口 |③---|
56
口口口口 |①---|
口口口∨ |----|
口口口| |----|
口口口① |----|
57
口口口口 |----|
口口口口 |①---|
②口口口 |----|
口口口① |②---|
58
口口口口 |①---|
①―<口 |----|
口口口口
口口口口

口口口口
②口口口
口口口口 |----|
口口口口 |②---|
59
口口口口 |①---|
口口口口 |----|
口>―①
口口口口

口口口口
口口口口
口口口② |----|
口口口口 |②---|
60
①①口口 |①---|
||口口 |----|
∧∧口口 |----|
口口口口 |----|
61
①①口口 |----|
口口口口 |①---|
口口②口 |----|
口口口口 |②---|
62
口口口口 |①---|
口∨口口 |----|
口|口口
口①口口

口口口口
口口口口
口口口口 |----|
口②口口 |②---|
63
口口口① |----|
口口②口 |①---|
口③口口 |②---|
口口口口 |③---|
64
口口口口 |①---|
∨口口口 |----|
|口口口 |----|
①口口口 |----|
65
口口口口 |----|
口口口口 |----|
口口口② |①---|
①口口口 |②---|
66
口口口口 |①---|
口口口口 |----|
口口口口
口>―①

口口口口
口口口口
口口口口 |----|
口口口② |②---|
67
口口口口 |①---|
口口口口 |----|
①―<口
口口口口

口口口口
口口口口
②口口口 |----|
口口口口 |②---|
68
――① |①---|
――① |----|
口口口口 |----|
口口口口 |----|
69
口口口① |----|
口口口① |----|
口口口口 |----|
口口口口 |①---|
70
口口口口 |----|
口口口口 |----|
口口口口 |----|
口口口口 |----|
71
口口口口 |----|
口口口口 |----|
口口口口 |----|
口口口口 |----|
72
口口口口 |①---|
口∨∨口 |----|
口||口
口①①口

口口口口
口口口口
口口口口 |----|
口②②口 |②---|
73
∨口口∨ |①---|
|口口| |----|
①口口①
口口口口

口口口口
口口口口
②口口② |----|
口口口口 |②---|
74
口口口口 |①---|
口∨∨口
口||口
口①①口

口口口口
∨口口∨ |②---|
|口口| |③---|
③②②③

口口口口
口口口口
口口口口
④口口④ |④---|
75
口∨∨口 |①---|
口||口
口①①口
口口口口

口口口口
口口口口 |②---|
口②②口 |----|
口口口口 |----|
76
∨∨∨∨ |①---|
|||| |----|
|||| |----|
①①①① |----|
77
口口口口 |----|
口口口口 |----|
口口口口 |----|
①①①① |①---|
最終更新:2019年10月22日 02:10