アットウィキロゴ
We're so Happy [ 2 ]
Ryu☆

EXTREME

Level: 10
BPM: 185
Notes: 904

1
口口口口 |----|
口口口口 |----|
口口口口 |----|
口口口口 |----|
2
口口口① |①-②-|
口口②③ |③-④-|
⑦口④口 |--⑤-|
⑤口⑥口 |⑥-⑦-|
3
口口口① |①-②-|
口口②口 |③-④-|
⑦口④口 |--⑤-|
⑤口⑥③ |⑥-⑦-|
4
口口口① |①-②-|
口口②③ |③-④-|
⑦口④口 |--⑤-|
⑤口⑥口 |⑥-⑦-|
5
口口口① |①-②-|
口口②口 |③-④-|
⑦口④口 |--⑤-|
⑤口⑥③ |⑥-⑦-|
6
⑥⑤④口 |①-②-|
∧①口口 |③-④-|
口②口口 |--⑤-|
口③口口 |--⑥-|
7
⑤口口① |①-②-|
口口②③ |③-④-|
口口④⑦ |--⑤-|
口口⑥⑤ |⑥-⑦-|
8
⑤④③口 |①-②-|
∧②口口 |--③-|
口①口口 |--④-|
口口口口 |--⑤-|
9
④⑤⑤① |①-②-|
口口②口 |③-④-|
口口口④ |--⑤-|
口⑥⑥③ |--⑥-|
10
口口口口 |①-②-|
⑤②①⑤ |③-④-|
④口③④ |--⑤-|
⑤口口⑤ |----|
11
⑤口④口 |①-②-|
口①>⑥ |③-④-|
⑤②④口 |--⑤-|
口③>⑥ |--⑥-|
12
⑤④>⑥ |①-②-|
口①口⑤ |③-④-|
口②>⑥ |--⑤-|
口③口⑤ |--⑥-|
13
⑤⑥口口 |①-②-|
①口⑦口 |③-④-|
③②口口 |--⑤-|
口④口口 |⑥-⑦-|
14
口口口① |①-②-|
①口口口 |③-④-|
口②口①
口④③口

口口口口
⑦口口口
口口口口 |--⑤-|
⑤口口⑥ |⑥-⑦-|
15
③口口口 |①-②-|
口③②口 |--③-|
∨∨①④ |--④-|
⑤⑤④口 |--⑤-|
16
口口③口 |①-②-|
口口②③ |--③-|
口口①口
③③口口

口口口口
口④口口
④口∨∨ |--④-|
口口⑤⑤ |--⑤-|
17
①②口口 |①-②-|
③口口口 |③-④-|
⑦④口口 |--⑤-|
⑤⑥口口 |⑥-⑦-|
18
口②③口 |①-②-|
口①口③ |--③-|
口口口口
口口①①

口口口口
口口口口
口口口④ |--④-|
⑤口口⑥ |⑤-⑥-|
19
⑤口④口 |①-②-|
口①>⑥ |③-④-|
⑤②④口 |--⑤-|
口③>⑥ |--⑥-|
20
⑤④>⑥ |①-②-|
口①口⑤ |③-④-|
口②>⑥ |--⑤-|
口③口⑤ |--⑥-|
21
口口口口 |①-②-|
口②口口 |--③-|
口①口口
口③口口

⑤<口④
口口口口
⑤<口④ |--④-|
④口口口 |--⑤-|
22
③口③口 |①-②-|
口口②③ |--③-|
③口①口
口口口口

口④口口
④口口口
口口∨∨ |--④-|
口口⑤⑤ |--⑤-|
23
⑦⑧口口 |①-②-|
⑤⑥口口 |③-④-|
③④口口 |⑤-⑥-|
①②⑧⑧ |⑦-⑧-|
24
口口②③ |①-②-|
口口口口 |--③-|
口口③②
①口口口

口口口口
④⑤口口
口口口口 |--④-|
⑤④口口 |--⑤-|
25
④⑤②③ |①-②-|
⑥⑦⑧⑨ |--③-|
①口③② |④-⑤-|
口口口口 |⑥⑦⑧⑨|
26
⑤口口⑤ |①-②-|
口口口口 |③-④-|
⑤④④⑤ |--⑤-|
口①②③ |----|
27
口口①⑤ |①-②-|
口口口② |③-④-|
口⑥④口 |--⑤-|
口③口口 |--⑥-|
28
①口口口 |--①-|
口口③口 |--②-|
口④②口 |--③-|
口口口口 |④---|
29
口⑤口④ |①-②-|
①②口口 |③-④-|
口口口口 |--⑤-|
口口⑥③ |--⑥-|
30
⑨口口④ |--①-|
⑦①口⑥ |--②-|
⑤口②⑧ |③④⑤⑥|
③口口⑩ |⑦⑧⑨⑩|
31
口口④⑤ |①-②-|
口①口口 |③-④-|
口③口口 |--⑤-|
口口②⑥ |--⑥-|
32
口①口口 |--①-|
③口口口 |--②-|
口④口口 |--③-|
口口②口 |④---|
33
口口②① |①-②-|
口口⑥口 |③-④-|
口⑤④口 |--⑤-|
口③口口 |--⑥-|
34
①⑮⑩⑧ |①②③④|
③⑬⑫⑥ |⑤⑥⑦⑧|
⑤⑪⑭④ |⑨⑩⑪⑫|
⑦⑨⑯② |⑬⑭⑮⑯|
35
①口⑧⑤ |①-②-|
①口⑧⑤ |③④-⑤|
⑥⑦口② |-⑥⑦-|
③④口② |⑧---|
36
①口⑧⑤ |①-②-|
①口⑧⑤ |③④-⑤|
⑥⑦口② |-⑥⑦-|
③④口② |⑧---|
37
①口⑨⑧ |①-②-|
①口⑧⑨ |③④-⑤|
⑥⑦⑤② |-⑥⑦-|
③④⑤② |⑧-⑨-|
38
①口⑨⑧ |①-②-|
①口⑧⑨ |③④-⑤|
⑥⑦⑤② |-⑥⑦-|
③④⑤② |⑧-⑨-|
39
①①口⑦ |①-②-|
口②⑧⑦ |③-④-|
⑤⑥④口 |⑤-⑥-|
⑤口③③ |⑦-⑧-|
40
①①⑥⑦ |①-②-|
④⑤口⑦ |③-④-|
口⑤口② |⑤-⑥-|
口⑧③③ |⑦-⑧-|
41
⑩②⑨⑮ |①②③④|
④⑭③⑪ |⑤⑥⑦⑧|
⑫⑥①⑦ |⑨⑩⑪⑫|
⑧⑯⑬⑤ |⑬⑭⑮⑯|
42
口⑥口口 |①②③④|
②口①口 |⑤⑥⑦⑧|
口④⑦⑤
⑧口口③

⑩口⑨⑬
⑯口⑮口
⑫口口口 |⑨⑩⑪⑫|
口⑭⑪口 |⑬⑭⑮⑯|
43
口④④⑤ |①-②-|
口③口① |③-④-|
口口口② |--⑤-|
⑤口口口 |----|
44
⑥口口⑥ |①②③---|
口口④⑤ |④---|
口①②③ |⑤---|
口口⑤④ |⑥---|
45
⑤口④口 |①-②-|
口①>⑥ |③-④-|
⑤②④口 |--⑤-|
口③>⑥ |--⑥-|
46
⑤④>⑥ |①-②-|
口①口⑤ |③-④-|
口②>⑥ |--⑤-|
口③口⑤ |--⑥-|
47
口口口口 |①-②-|
口②口口 |--③-|
口①口口
口③口口

⑤<口④
口口口口
⑤<口④ |--④-|
④口口口 |--⑤-|
48
③口③口 |①-②-|
口口②③ |--③-|
③口①口
口口口口

口④口口
④口口口
口口∨∨ |--④-|
口口⑤⑤ |--⑤-|
49
④⑤>⑥ |①-②-|
口①口口 |③-④-|
口②>⑥ |--⑤-|
口③⑤⑤ |--⑥-|
50
⑤⑤口⑤ |①-②-|
∧∧⑦⑥ |③-④-|
③④口⑤ |⑤---|
①②口口 |⑥-⑦-|
51
①①口口 |①---|
口口口口 |②-③-|
③④∨∨ |--④-|
⑤②①① |--⑤-|
52
①口②口 |--①-|
③口口口 |--②-|
④口口口 |--③-|
口口④④ |④---|
53
⑤口④口 |①-②-|
口①>⑥ |③-④-|
⑤②④口 |--⑤-|
口③>⑥ |--⑥-|
54
⑤④>⑥ |①-②-|
口①口⑤ |③-④-|
口②>⑥ |--⑤-|
口③口⑤ |--⑥-|
55
口口口口 |①-②-|
口②口口 |--③-|
口①口口
口③口口

⑤<口④
口口口口
⑤<口④ |--④-|
④口口口 |--⑤-|
56
③口③口 |①-②-|
口口②③ |--③-|
③口①口
口口口口

口④口口
④口口口
口口∨∨ |--④-|
口口⑤⑤ |--⑤-|
57
⑤口⑥口 |①-②-|
口口口口 |③-④-|
④①口口 |--⑤-|
②③⑥⑥ |--⑥-|
58
口口口口 |--①-|
①口口∨ |②---|
口口口②
口口口口

口口口口
口口∨口
口口③③ |③---|
口口口口

口口口口
口∨口口
口④④口
口口口口 |④---|
59
口口①∨ |①---|
口口∧①
口①口口
口口口口

∨②②口
②∧口② |--②-|
口口口口
口口口口

口③口③
③口口口
口口口③ |----|
口口口口 |③---|
60
⑥口口口 |①②③---|
口⑤④口 |④---|
①②③口 |⑤---|
口⑥⑤④ |⑥---|
61
口⑤①① |①-②③|
⑤口②口 |-④-⑤|
口③口④ |--⑥-|
⑥⑦⑧口 |⑦-⑧-|
62
口⑦①⑧ |①-②③|
⑥口⑨① |-④-⑤|
④②③⑩ |-⑥-⑦|
口口⑪⑤ |⑧⑨⑩⑪|
63
⑤口①口 |①-②③|
口⑤口① |-④-⑤|
④②③口 |--⑥-|
口⑧⑦⑥ |⑦-⑧-|
64
④⑤⑥口 |①-②③|
口⑦②① |-④-⑤|
口③⑧① |-⑥-⑦|
口口口口 |⑧---|
65
④⑤口① |①-②③|
口口①口 |-④-⑤|
口①口口
①③②口

口口口⑫
⑬⑨口⑥
⑦口口⑩ |⑥⑦⑧⑨|
⑪口口⑧ |⑩⑪⑫⑬|
66
④⑤①⑫ |①-②③|
⑬⑪⑧口 |-④-⑤|
⑦口①⑩ |⑥⑦⑧⑨|
⑨②③⑥ |⑩⑪⑫⑬|
67
④⑤①口 |①-②③|
口⑧⑦⑥ |-④-⑤|
口口①口 |--⑥-|
口②③口 |⑦-⑧-|
68
④⑧⑦③ |①②③④|
口口口口 |⑤⑥⑦⑧|
口②①⑨ |⑨---|
⑥⑩⑩⑤ |⑩---|
69
口口口④ |①-②-|
①①⑤① |③-④-|
口⑥②口 |--⑤-|
口口口③ |--⑥-|
70
口口①口 |--①-|
④口口③ |--②-|
口口口口 |--③-|
口②口口 |④---|
71
口④⑥口 |①-②-|
口③②口 |③-④-|
口口①口 |--⑤-|
口口⑤口 |--⑥-|
72
⑤③口⑤ |①-②-|
④口①③ |③-④-|
①⑤④② |--⑤-|
口②口口 |----|
73
⑤②①口 |①-②-|
⑤②①口 |③④-⑤|
口⑧⑦④ |-⑥⑦-|
口⑧⑥③ |⑧---|
74
口①②⑤ |①-②-|
口①②⑤ |③④-⑤|
④⑦⑨⑧ |-⑥⑦-|
③⑥⑧⑨ |⑧-⑨-|
75
①①口③ |①-②-|
口②④③ |③-④-|
口⑥⑧⑦ |⑤-⑥-|
⑤⑤口⑦ |⑦-⑧-|
76
⑥口①⑨ |①②③④|
②④⑦⑤ |⑤⑥⑦⑧|
⑩口口⑩ |⑨---|
口⑧③口 |⑩---|
77
②③⑦⑦ |①-②-|
④③⑤⑦ |③---|
口③⑦⑥ |④⑤⑥-|
①③⑦⑦ |⑦---|
78
⑤⑥口⑪ |①②③④|
⑦⑧⑨口 |⑤⑥⑦⑧|
③④⑪⑩ |⑨-⑩-|
①②口口 |⑪---|
79
口⑤>⑥ |①-②-|
③口④口 |③-④-|
口⑤>⑥ |--⑤-|
①②④口 |--⑥-|
80
②口口口 |①-②③|
口③口口 |-④-⑤|
⑤口口口
④①口口

口⑧口⑦
⑥口⑨口
口⑩口⑦ |-⑥⑦⑧|
口⑫⑪口 |⑨⑩⑪⑫|
81
⑤<④口 |①-②-|
③②口① |--③-|
⑤<④口 |--④-|
③口口口 |--⑤-|
82
⑦口⑧② |①-②③|
口⑨③⑥ |-④-⑤|
⑦口口⑤ |-⑥⑦⑧|
口口①④ |⑨---|
83
口⑤>⑥ |①-②-|
③口④口 |③-④-|
口⑤>⑥ |--⑤-|
①②④口 |--⑥-|
84
②口口口 |①-②③|
口③口口 |-④-⑤|
⑤口口口
④①口口

口⑧口⑦
⑥口⑨口
口⑩口⑦ |-⑥⑦⑧|
口⑫⑪口 |⑨⑩⑪⑫|
85
②口①口 |①-②③|
⑤③|① |-④-⑤|
口口∧|
④口口∧

口口口口
口口口口
⑥⑦⑧口 |--⑥-|
口口口口 |⑦-⑧-|
86
③①⑥口 |①-②-|
⑤⑤口⑥ |③-④-|
⑥⑥口口 |⑤---|
④②口口 |⑥---|
87
口口口② |①-②③|
⑦⑥③口 |④⑤⑥⑦|
口口⑥口
④⑤①①

⑧⑩⑨口
口口口口
⑪⑨口口 |⑧-⑨-|
口口⑪口 |⑩-⑪-|
88
⑦口口⑥ |①-②③|
口⑦②① |④⑤⑥⑦|
口口⑤③
口④口①

口口口口
⑧口口口
⑨⑩口口 |-⑧-⑨|
⑬口⑫⑪ |⑩⑪⑫⑬|
89
⑧⑩①⑥ |①-②③|
⑦④⑤① |④⑤⑥⑦|
⑪⑨③② |⑧-⑨-|
口②口口 |⑩-⑪-|
90
口口②口 |①-②③|
⑦⑤口⑥ |④⑤⑥⑦|
口口④①
口③①⑥

⑧⑩口口
口口口口
⑪⑨口口 |⑧-⑨-|
口口⑪口 |⑩-⑪-|
91
口口口① |①-②③|
口②③口 |-④-⑤|
口口④口
口⑤口口

⑬口口⑫
⑪口口⑩
⑨口口⑧ |⑥⑦⑧⑨|
⑦口口⑥ |⑩⑪⑫⑬|
92
④③①④ |①---|
口②①口 |②---|
④口②④ |③---|
口口③口 |④---|
93
③><③ |①---|
③><③ |--②-|
③><③ |----|
①②②① |③---|
94
口口口口 |----|
口口口口 |----|
口口口口 |----|
口口口口 |----|
95
①口口① |①---|
①①①① |----|
①口口① |----|
口口口口 |----|
最終更新:2019年10月22日 02:24