アットウィキロゴ
glacia [ 2 ]
DJ TOTTO

ADVANCED

Level: 9
BPM: 186
Notes: 789

1
①口口① |----|
口口口口 |----|
口口口口 |----|
口口口口 |①---|
2
口口④口 |①-②-|
∨口⑥③ |③-④-|
|口②口 |--⑤-|
①⑤口① |--⑥-|
3
口口②口 |--①-|
口口口③ |--②-|
口口④① |③-④-|
口口口⑤ |⑤---|
4
口口口④ |①-②-|
口∨③⑥ |③-④-|
口|口② |--⑤-|
①①①⑤ |--⑥-|
5
口①③口 |--①-|
口④②口 |--②-|
⑥口⑤口 |③-④-|
口口口口 |⑤-⑥-|
6
口④口口 |①-②-|
③口∨口 |③-④-|
口②|口
①①①口

⑤口口口
口口⑥口
口口口口 |--⑤-|
口口口口 |--⑥-|
7
口③口口 |--①-|
④②口口 |--②-|
①⑤口口 |③-④-|
口口口口 |⑤---|
8
④口口口 |①-②-|
口③口∨ |③-④-|
②口口|
口①①①

口⑧口口
⑦口∨口
口⑥|口 |⑤-⑥-|
⑤口⑧⑧ |⑦-⑧-|
9
口口口口 |--①-|
⑤①口口 |②-③-|
口⑥⑥② |④-⑤-|
③④⑥口 |⑥---|
10
――① |①---|
口②口口 |②---|
④口口③ |③---|
口口口口 |④---|
11
口口口口 |①---|
口④③口 |②---|
口②①口 |③---|
口口口口 |④---|
12
口口口① |①---|
口口口② |②---|
③口口④ |③---|
①――< |④---|
13
口口口口 |①---|
口①②口 |②---|
口③④口 |③---|
口口口口 |④---|
14
――① |①---|
②口口口 |②---|
④口口③ |③---|
①口口口 |④---|
15
口口口口 |①---|
口④③口 |②---|
口②①口 |③---|
口口口口 |④---|
16
口口口① |①---|
口口口口 |②---|
口口口②
①―<口

口>―⑤
口口口口
口③④口 |③---|
⑤口口口 |④-⑤-|
17
口口口③ |----|
口①口口 |①---|
③口口② |②---|
口口口口 |③---|
18
①―<口 |①---|
口口口口 |----|
口口口口
口>―①

②口口口
口口口②
②口口口 |----|
口口口② |--②-|
19
⑪①②口 |--①②|
口③④口 |③④⑤⑥|
口⑤⑥口 |⑦⑧⑨⑩|
⑨⑦⑧⑩ |⑪---|
20
口口①① |①-②③|
口②③④ |④-⑤-|
⑤<口口
⑤口口

口口口口
口口口口
⑥口>⑥ |--⑥-|
口⑥⑥<

⑦口口
⑦<口口
口口口⑦
口口⑦口 |--⑦-|
21
口①①< |--①-|
①口>①
口口口口
口口口口

口口②口
口⑤④② |--②-|
口③⑥口 |③-④-|
②口口口 |⑤-⑥-|
22
①口口⑨ |①-②③|
①⑧⑨⑦ |④-⑤-|
口口口⑤ |⑥-⑦-|
⑥④③② |⑧-⑨-|
23
①⑨口口 |--①-|
⑦口口⑧ |②-③④|
口口②口 |⑤⑥⑦-|
③④⑤⑥ |⑧-⑨-|
24
⑤口口⑩ |--①②|
⑪⑫口口 |③④⑤-|
①②③④ |⑥⑦⑧⑨|
⑨⑧⑦⑥ |⑩-⑪⑫|
25
口②口口 |①-②-|
口⑨①⑤ |③-④-|
④口③口 |⑤-⑥⑦|
⑥⑦⑧口 |⑧-⑨-|
26
口⑧①① |--①-|
⑥口⑦⑧ |②③④⑤|
②③④⑤ |⑥-⑦-|
口⑦口口 |--⑧-|
27
口⑦⑦① |--①-|
口②口口 |②-③-|
④⑥⑥④ |④-⑤-|
⑤口③⑤ |⑥-⑦-|
28
口口口① |①-②③|
口②③④ |④-⑤-|
⑤<口口
⑤口口

口口口口
口口口口
⑥口>⑥ |--⑥-|
口⑥⑥<

⑦口口
⑦<口口
口口口⑦
口口⑦口 |--⑦-|
29
口①①< |--①-|
①口>①
口口口口
口口口口

口口②口
口⑤④② |--②-|
口③⑥口 |③-④-|
②口口口 |⑤-⑥-|
30
①口口⑨ |①-②③|
①⑧⑨⑦ |④-⑤-|
口口口⑤ |⑥-⑦-|
⑥④③② |⑧-⑨-|
31
①⑨口口 |--①-|
⑦口口⑧ |②-③④|
口口②口 |⑤⑥⑦-|
③④⑤⑥ |⑧-⑨-|
32
⑤口口⑩ |--①②|
⑪⑫口口 |③④⑤-|
①②③④ |⑥⑦⑧⑨|
⑨⑧⑦⑥ |⑩-⑪⑫|
33
口②口口 |①-②-|
口⑨①⑤ |③-④-|
④口③口 |⑤-⑥⑦|
⑥⑦⑧口 |⑧-⑨-|
34
⑨口口⑩ |--①②|
①口②⑧ |③④⑤⑥|
③④⑤⑥ |⑦-⑧-|
⑦口口口 |⑨-⑩-|
35
口①口口 |--①-|
①口口口 |②③④⑤|
口口口口
⑤④③②

口口口口
⑬⑫⑪⑩
⑨⑧⑦⑥ |⑥⑦⑧⑨|
口口口口 |⑩⑪⑫⑬|
36
口口口① |①---|
口口口③ |----|
②―<口 |②---|
口口口口 |③---|
37
口口口口 |①---|
口②口口 |②---|
①口口口
口>―①

③―<口
口口口口
口口口④ |③---|
口口口③ |④---|
38
①口∨口 |①---|
②口|口 |②---|
③口|口 |③---|
④口①口 |④---|
39
口①口口 |①---|
口②口口 |②---|
口③口口 |③---|
口④口口 |④---|
40
口口口口 |①---|
口③①① |----|
口>―② |②---|
口口①口 |③---|
41
口口口口 |①---|
口口口口 |②---|
口口②①
①―<口

口>―③
④口口口
口口口口 |③---|
③口口口 |④---|
42
口口口① |①---|
口∨口② |②---|
口|口口
口①口口

口⑤⑤口
口口口口
口口口③ |③---|
口⑤口④ |④-⑤-|
43
①口口口 |--①-|
∨口口口 |②-③-|
|口②口 |----|
③口口口 |----|
44
⑥②①⑤ |①-②-|
②⑥⑤① |③-④-|
④口⑦③ |--⑤-|
①④③⑦ |⑥-⑦-|
45
口口口口 |①---|
口口口口 |②---|
口①口②
①口口口

口口口口
口口口口
口⑤口口 |③---|
⑤④③口 |④-⑤-|
46
②④⑤① |①-②-|
④②①⑤ |③---|
⑥口③⑦ |④-⑤-|
口⑥⑦③ |⑥-⑦-|
47
口口口口 |①---|
口②①口 |②---|
口③口口 |③---|
④口口口 |④---|
48
口④③⑦ |①-②-|
④口⑦③ |③-④-|
②⑥⑤① |--⑤-|
⑥②①⑤ |⑥-⑦-|
49
①口口口 |①---|
口①口口 |②---|
②⑤口口 |③---|
⑤③④口 |④-⑤-|
50
②④⑤① |①-②-|
④②①⑤ |③---|
⑥口③⑦ |④-⑤-|
口⑥⑦③ |⑥-⑦-|
51
⑦――< |①-②-|
⑤①②⑥ |③-④-|
口③④口 |⑤-⑥-|
――⑦ |⑦---|
52
①口口④ |①-②-|
口①③口 |③-④-|
⑤②⑦口 |--⑤-|
口⑥口① |⑥-⑦-|
53
⑦⑥⑤⑩ |--①②|
④③②① |③④⑤⑥|
口口口⑨ |⑦-⑧-|
口口⑧口 |⑨-⑩-|
54
口口⑦口 |①-②-|
⑤③口口 |③-④-|
口⑥④口 |--⑤-|
①①口② |⑥-⑦-|
55
①①口口 |--①-|
⑥口口② |--②③|
口口③口 |④-⑤-|
⑦④口⑤ |⑥-⑦-|
56
②③④口 |①-②③|
⑦①①口 |④-⑤-|
口口⑤口 |--⑥-|
口口⑥⑧ |⑦-⑧-|
57
①②③④ |--①②|
口⑤⑥⑦ |③④⑤⑥|
⑧口⑨口 |⑦-⑧-|
⑩口口口 |⑨-⑩-|
58
⑨口⑧⑨ |①-②③|
②③④⑦ |④-⑤-|
⑥⑨⑨口 |⑥-⑦-|
口⑤①① |⑧-⑨-|
59
口③④⑤ |--①-|
口①①口 |--②-|
②⑥口② |--③④|
①②②① |⑤-⑥-|
60
⑤口口口 |①-②③|
|②③④ |④-⑤-|
∧口口口
①口口①

⑥口⑥口
口口口口
⑧―<口 |--⑥-|
口口⑦口 |⑦-⑧-|
61
⑥口⑨① |--①-|
②③④⑤ |②③④⑤|
①口口⑧ |⑥-⑦-|
口口⑦口 |⑧-⑨-|
62
口口口⑤ |①-②③|
口口口| |④-⑤-|
④③②∧
①①口口

⑥口口⑥
口⑦口口
口口口口 |--⑥-|
口⑧⑧口 |⑦-⑧-|
63
口①①口 |--①-|
⑥口②口 |--②③|
①③口① |④-⑤-|
④口⑦⑤ |⑥-⑦-|
64
口>―⑤ |①-②③|
口口口口 |④-⑤-|
①④③②
口①口口

⑦口口⑥
口口口口
口口口口 |--⑥-|
⑧口口⑥ |⑦-⑧-|
65
口口口⑧ |--①②|
④③②① |③④⑤⑥|
⑨⑦⑥⑤ |⑦-⑧-|
口口口⑩ |⑨-⑩-|
66
口⑧⑧口 |--①②|
①②③⑦ |③-④-|
⑥⑤口口 |⑤-⑥-|
④口口口 |⑦-⑧-|
67
②口口口 |--①-|
∧①①口 |--②-|
口口口∨
口口口②

③口口口
口口口口
③④⑤口 |--③④|
口⑥口③ |⑤-⑥-|
68
∨口⑥① |①-②-|
|口②口 |③-④-|
|口口③ |--⑤-|
①口④⑤ |--⑥-|
69
口口口① |--①-|
⑦口②口 |②-③-|
口⑤⑥③ |④-⑤-|
⑥口④口 |⑥-⑦-|
70
口口①① |①-②③|
口②③④ |④-⑤-|
⑤<口口
⑤口口

口口口口
口口口口
⑥口>⑥ |--⑥-|
口⑥⑥<

⑦口口
⑦<口口
口口口⑦
口口⑦口 |--⑦-|
71
口①①< |--①-|
①口>①
口口口口
口口口口

口口②口
口⑤④② |--②-|
口③⑥口 |③-④-|
②口口口 |⑤-⑥-|
72
①口口⑨ |①-②③|
①⑧⑨⑦ |④-⑤-|
口口口⑤ |⑥-⑦-|
⑥④③② |⑧-⑨-|
73
①⑨口口 |--①-|
⑦口口⑧ |②-③④|
口口②口 |⑤⑥⑦-|
③④⑤⑥ |⑧-⑨-|
74
⑤口口⑩ |--①②|
⑪⑫口口 |③④⑤-|
①②③④ |⑥⑦⑧⑨|
⑨⑧⑦⑥ |⑩-⑪⑫|
75
口②口口 |①-②-|
口⑨①⑤ |③-④-|
④口③口 |⑤-⑥⑦|
⑥⑦⑧口 |⑧-⑨-|
76
口⑧①① |--①-|
⑥口⑦⑧ |②③④⑤|
②③④⑤ |⑥-⑦-|
口⑦口口 |--⑧-|
77
口⑦⑦① |--①-|
口②口口 |②-③-|
④⑥⑥④ |④-⑤-|
⑤口③⑤ |⑥-⑦-|
78
口口口① |①-②③|
口②③④ |④-⑤-|
⑤<口口
⑤口口

口口口口
口口口口
⑥口>⑥ |--⑥-|
口⑥⑥<

⑦口口
⑦<口口
口口口⑦
口口⑦口 |--⑦-|
79
口①①< |--①-|
①口>①
口口口口
口口口口

口口②口
口⑤④② |--②-|
口③⑥口 |③-④-|
②口口口 |⑤-⑥-|
80
①口口⑨ |①-②③|
①⑧⑨⑦ |④-⑤-|
口口口⑤ |⑥-⑦-|
⑥④③② |⑧-⑨-|
81
①⑨口口 |--①-|
⑦口口⑧ |②-③④|
口口②口 |⑤⑥⑦-|
③④⑤⑥ |⑧-⑨-|
82
⑤口口⑩ |--①②|
⑪⑫口口 |③④⑤-|
①②③④ |⑥⑦⑧⑨|
⑨⑧⑦⑥ |⑩-⑪⑫|
83
口②口口 |①-②-|
口⑨①⑤ |③-④-|
④口③口 |⑤-⑥⑦|
⑥⑦⑧口 |⑧-⑨-|
84
⑨口口⑩ |--①②|
①口②⑧ |③④⑤⑥|
③④⑤⑥ |⑦-⑧-|
⑦口口口 |⑨-⑩-|
85
口①口口 |--①-|
①口口口 |②③④⑤|
口口口口
⑤④③②

口口口口
⑬⑫⑪⑩
⑨⑧⑦⑥ |⑥⑦⑧⑨|
口口口口 |⑩⑪⑫⑬|
86
②⑧口① |①-②-|
口口口口 |--③-|
④⑤⑥⑦ |--④⑤|
口口口③ |⑥⑦⑧-|
87
口口口口 |--①-|
口口③② |--②③|
口口口口
口①①口

∨口⑥∨
|④口|
|⑤口| |④-⑤-|
⑦口口⑦ |⑥-⑦-|
88
口口口口 |----|
口口口口 |----|
口口口口 |----|
口口口口 |----|
89
口口口口 |----|
口口口口 |----|
口口口口 |----|
口口口口 |----|
90
口口口口 |----|
口口口口 |----|
口口口口 |----|
口口口口 |----|
91
口口口口 |①---|
口口口口 |----|
口口口口 |----|
①口口① |----|
最終更新:2019年10月22日 02:29