アットウィキロゴ
アガット
Bazole

BASIC

Level: 5
BPM: 200
Notes: 438

1
口口口口 |----|
口口口口 |----|
口口口口 |----|
口口口口 |----|
2
②口口② |----|
|口口| |----|
∧口口∧ |①---|
口①①口 |--②-|
3
口口口口 |----|
口口口口 |----|
口口口口 |----|
口口口口 |----|
4
①口口① |----|
∨①①∨ |----|
|口口| |①---|
②口口② |--②-|
5
口口口口 |----|
口口口口 |----|
口口口口 |----|
口口口口 |----|
6
②口口② |----|
口口口口 |----|
口①①口 |①---|
①口口① |--②-|
7
口口口口 |--①-|
口①②口 |②---|
口口口口 |③-④-|
③④⑤⑥ |⑤-⑥-|
8
口口口∨ |--①-|
口①②| |②---|
③④⑤⑥ |③-④-|
口口口口 |⑤-⑥-|
9
口口口口 |----|
口①①口 |----|
口口口① |----|
口口口口 |--①-|
10
口口口口 |----|
口口口口 |----|
口口口口 |----|
口口口口 |----|
11
口口口口 |----|
口口口口 |----|
口口口口 |----|
口口口口 |----|
12
口口口口 |①---|
口⑤口口 |②---|
①④口② |--③-|
①③口② |④-⑤-|
13
口口口口 |--①-|
口口⑤口 |--②-|
②口④① |③-④-|
②口③① |⑤---|
14
①⑤口② |①---|
①④口② |②---|
口③口口 |--③-|
口口口口 |④-⑤-|
15
②口⑤① |--①-|
②口④① |--②-|
口口③口 |③-④-|
口口口口 |⑤---|
16
口口口口 |①---|
口⑤口口 |②---|
①④口② |--③-|
①③口② |④-⑤-|
17
口口口口 |--①-|
口口⑤口 |--②-|
②口④① |③-④-|
②口③① |⑤---|
18
①⑤口② |①---|
①④口② |②---|
口③口口 |--③-|
口口口口 |④-⑤-|
19
②口⑤① |--①-|
②口④① |--②-|
口口③口 |③-④-|
口口口口 |⑤---|
20
口口口口 |①---|
口口②① |----|
口口口口 |②---|
①――< |----|
21
口口口口 |①---|
②①口口 |----|
口口口口 |②---|
口口口口 |----|
22
口口②① |①---|
口口口口 |----|
口口口口 |②---|
口口口口 |----|
23
②①口口 |①---|
口口口口 |----|
口口口口 |②---|
口口口口 |----|
24
口∨口口 |①---|
口|②① |----|
口|口口 |②---|
①①口口 |----|
25
口口口口 |①---|
②①口口 |----|
口口口口 |②---|
口口口口 |----|
26
口口口口 |①---|
口口∨口 |----|
①口|口
口①①口

口口口口
口口口口
口②口口 |②---|
口口③口 |--③-|
27
口口口口 |----|
口口口口 |----|
口口口口 |----|
口口口口 |----|
28
①②③④ |①-②-|
口口口口 |③-④-|
口口⑥口 |⑤---|
口⑤口口 |⑥---|
29
③口口⑥ |①---|
口④⑤口 |②---|
口①口口 |③-④-|
口口②口 |⑤-⑥-|
30
口口口口 |①-②-|
⑤口口口 |③-④-|
①②③④ |⑤---|
口口口⑥ |⑥---|
31
口口口口 |①---|
口口口② |②---|
③口口口 |③-④-|
①④⑤口 |⑤---|
32
①②③④ |①-②-|
口口口口 |③-④-|
口⑤口口 |⑤---|
口口⑥口 |⑥---|
33
③口口⑥ |①---|
口④⑤口 |②---|
口口②口 |③-④-|
口①口口 |⑤-⑥-|
34
口口口口 |①-②-|
⑤口口口 |③-④-|
①②③④ |⑤---|
口口口⑥ |⑥---|
35
口口口口 |①---|
口口口② |②---|
③口口⑥ |③-④-|
①④⑤口 |⑤-⑥-|
36
①②③④ |①-②-|
口口口口 |③-④-|
口口⑥口 |⑤---|
口⑤口口 |⑥---|
37
③口口⑥ |①---|
口④⑤口 |②---|
口①口口 |③-④-|
口口②口 |⑤-⑥-|
38
口口口口 |①-②-|
⑤口口口 |③-④-|
①②③④ |⑤---|
口口口⑥ |⑥---|
39
口口口口 |①---|
口口口② |②---|
③口口口 |③-④-|
①④⑤口 |⑤---|
40
①②③④ |①-②-|
口口口口 |③-④-|
口⑤口口 |⑤---|
口口⑥口 |⑥---|
41
③口口⑥ |①---|
口④⑤口 |②---|
口口②口 |③-④-|
口①口口 |⑤-⑥-|
42
口口口口 |①-②-|
⑤口口口 |③-④-|
①②③④ |⑤---|
口口口⑥ |⑥---|
43
口口口口 |①---|
口口口② |②---|
③口口⑥ |③-④-|
①④⑤口 |⑤-⑥-|
44
①―<口 |①---|
口口口口 |----|
口口口口 |----|
口口口口 |----|
45
①口口口 |①---|
口口>①
口口口口
口口口口

口口口口
口口口② |②---|
口口口口 |③-④-|
③④⑤⑥ |⑤-⑥-|
46
口口③口 |①---|
②口口④ |②---|
口①口口 |③---|
口口口口 |④---|
47
口口口口 |①---|
口∨∨口 |----|
口||口 |----|
口①①口 |----|
48
口口∨口 |①---|
①②③口 |②---|
口口口口 |③---|
口①①口

口口口口
口口④口
口口口口
口口口口 |④---|
49
口口口口 |①---|
口∨口口 |②---|
口③②① |③---|
口口口口

口口口口
口口口口
口④口口
口口口口 |④---|
50
②―<口 |①---|
口口口口 |②---|
口口口口 |----|
口口口① |----|
51
口口口口 |----|
口口口口 |----|
口口口口 |----|
口口口口 |----|
52
①∨口口 |①---|
口③②① |②---|
口口口口 |③---|
口口口口

口口口口
口④口口
口口口口
口口口口 |④---|
53
口口口口 |①---|
口口∨口 |②---|
①②③口 |③---|
口口口口

口口口口
口口口口
口口④口
口口口口 |④---|
54
①④④① |①---|
口口口口 |--②-|
口③③口 |--③-|
口②②口 |--④-|
55
口口口口 |----|
①口口口 |①---|
②口口口 |②---|
③口口口 |③---|
56
口口口口 |①---|
口∨口口 |----|
口|口口 |----|
口①口口 |----|
57
口口口口 |----|
口口口口 |----|
口口②口 |①---|
口①①口 |②---|
58
①口口② |①---|
①口口② |--②-|
口口口口 |----|
③口口③ |③---|
59
②∨∨② |①---|
口④④口 |--②-|
③①①口 |--③-|
口口口口 |--④-|
60
口①①② |----|
③①①口 |①---|
口口口④ |②-③-|
⑤口口口 |④-⑤-|
61
∨口口∨ |①-②-|
⑤口③⑤ |③---|
②口口口 |④---|
口④④① |--⑤-|
62
①②口① |----|
①口③① |①---|
口④口口 |②-③-|
口口⑤口 |④-⑤-|
63
口④④口 |--①-|
口①口口 |②-③-|
∨口②∨ |--④-|
⑤③口⑤ |--⑤-|
64
口口⑤口 |----|
口④口口 |①---|
①口③① |②-③-|
①②口① |④-⑤-|
65
口口口口 |--①-|
①④④口 |②-③-|
口∨∨② |--④-|
③⑤⑤口 |--⑤-|
66
口口口⑤ |----|
④口口口 |①---|
口①①③ |②-③-|
②①①口 |④-⑤-|
67
口∨∨口 |--①-|
口④④口 |②---|
③①②口 |--③-|
口①②口 |--④-|
68
口①①② |----|
③①①口 |①---|
口口口④ |②-③-|
⑤口口口 |④-⑤-|
69
∨口口∨ |①-②-|
⑤口③⑤ |③---|
②口口口 |④---|
口④④① |--⑤-|
70
①口⑤① |----|
①④口① |①---|
口口③口 |②-③-|
口②口口 |④-⑤-|
71
口口口口 |--①-|
口口口口 |②---|
①口口② |--③-|
③④⑤口 |④-⑤-|
72
口口口口 |--①-|
④⑤⑥口 |②-③-|
口③②① |--④-|
口口口口 |⑤-⑥-|
73
口③②① |--①-|
⑤口口⑤ |②-③-|
口④④口 |--④-|
口口口口 |--⑤-|
74
口口口口 |--①-|
口口口口 |②-③-|
口⑥⑤④ |--④-|
①②③口 |⑤-⑥-|
75
口④④口 |--①-|
①②③口 |②-③-|
口⑥⑥口 |④--⑤|
口⑤⑤口 |--⑥-|
76
∨口口∨ |①---|
|口口| |----|
|口口| |----|
①口口① |----|
77
口口口口 |----|
口口口口 |----|
口口口口 |----|
口口口口 |----|
78
口口口口 |①---|
口④口口 |----|
口③口口 |--②-|
①②口① |③-④-|
79
口口口口 |--①-|
口口⑤口 |--②-|
②口④① |③-④-|
②口③① |⑤---|
80
①⑤口② |①---|
①④口② |②---|
口③口口 |--③-|
口口口口 |④-⑤-|
81
②口⑤① |--①-|
②口④① |--②-|
口口③口 |③-④-|
口口口口 |⑤---|
82
口口口口 |①---|
口⑤口口 |②---|
①④口② |--③-|
①③口② |④-⑤-|
83
口口口口 |--①-|
口口⑤口 |--②-|
②口④① |③-④-|
②口③① |⑤---|
84
①①②② |①---|
⑤⑤⑤⑤ |②---|
④④④④ |--③-|
③③③③ |④-⑤-|
最終更新:2019年10月22日 02:30