アットウィキロゴ
明日ハレルヤ!
岡本真夜×大橋卓弥(fromスキマスイッチ)

BASIC

Level: 2
BPM: 122
Notes: 180

1
口口口口 |----|
口口口口 |----|
口口口口 |----|
口口口口 |----|
2
口口口口 |①---|
口口口口 |----|
①口口② |②---|
口口口口 |----|
3
口③③口 |①---|
口②②口 |②---|
口①①口 |③---|
口口口口 |----|
4
口口口口 |①---|
①口口② |----|
口口口口 |②---|
口口口口 |----|
5
口①①口 |①---|
口②②口 |②---|
口③③口 |③---|
口口口口 |----|
6
口口口口 |①---|
口口口口 |----|
①口口② |②---|
口口口口 |----|
7
口③③口 |①---|
口②②口 |②---|
口①①口 |③---|
口口口口 |----|
8
口口口口 |①---|
口口口口 |----|
口口②① |②---|
口口口口 |----|
9
口口口口 |①---|
口口口口 |----|
②①口口 |②---|
口口口口 |----|
10
口②③口 |①---|
口①①口 |②---|
口口口口 |----|
口口口口 |③---|
11
口口口口 |----|
口①②口 |①---|
口口口口 |----|
口口口口 |②---|
12
口口口口 |----|
口口口口 |①---|
口①②口 |----|
口口口口 |②---|
13
口口口口 |----|
口口口口 |①---|
口口口口 |----|
口①②口 |②---|
14
口口口口 |①---|
②口口① |----|
口口口口 |②---|
口口口口 |----|
15
口口口口 |①---|
口①②口 |----|
口口口口 |②---|
口口口口 |----|
16
口口口口 |①---|
口口口口 |----|
口①②口 |②---|
口口口口 |----|
17
口口口口 |①---|
口③口口 |----|
口②口① |②---|
口口口口 |③---|
18
口①口口 |①---|
口口②口 |----|
口口口口 |②---|
口口口口 |----|
19
口口口口 |①---|
口①②口 |----|
口口口口 |②---|
口口口口 |----|
20
口口口口 |①---|
口口口口 |----|
口①②口 |②---|
口口口口 |----|
21
口口口口 |①---|
口①口口 |----|
口③③口 |②---|
口②②口 |③---|
22
口口口口 |①---|
口①口② |----|
口口口口 |②---|
口口口口 |----|
23
口口口口 |①---|
②口①口 |----|
口口口口 |②---|
口口口口 |----|
24
口口口口 |①---|
口口口口 |----|
口②①口 |②---|
口口口口 |----|
25
口口口口 |①---|
口口①口 |----|
口③②口 |②---|
口口口口 |③---|
26
口口口口 |①---|
口口②口 |----|
①口口口 |②---|
口口口口 |----|
27
口②口口 |①---|
口①口口 |----|
口口口口 |②---|
口口口口 |----|
28
口口①口 |①---|
口②口口 |----|
口口口口 |②---|
口口口口 |----|
29
口口口口 |①---|
口口②口 |----|
口口①口 |②---|
口口口口 |----|
30
口口口口 |----|
口口口口 |①---|
口②③口 |----|
①口口口 |②-③-|
31
口口口口 |----|
口口口口 |①---|
口③②口 |----|
口口口① |②-③-|
32
口口口口 |----|
口②③口 |①---|
①口口口 |----|
口口口口 |②-③-|
33
口口口口 |----|
口③②口 |①---|
口口口① |----|
口口口口 |②-③-|
34
口②③口 |----|
①口口口 |①---|
口口口口 |----|
口口口口 |②-③-|
35
口③②口 |----|
口口口① |①---|
口口口口 |----|
口口口口 |②-③-|
36
口口口口 |----|
口口口口 |①---|
口③口口 |②---|
口①②口 |③---|
37
口④口口 |①---|
口②③口 |②---|
口口①口 |③---|
口口口口 |④---|
38
口④④口 |①---|
口③③口 |②---|
口②②口 |③---|
口①①口 |④---|
39
口口口口 |①---|
口口口口 |----|
①口口② |②---|
口口口口 |----|
40
口③③口 |①---|
口②②口 |②---|
口①①口 |③---|
口口口口 |----|
41
口口口口 |①---|
①口口② |----|
口口口口 |②---|
口口口口 |----|
42
口①①口 |①---|
口②②口 |②---|
口③③口 |③---|
口口口口 |----|
43
口口口口 |①---|
口口口口 |----|
①口口② |②---|
口口口口 |----|
44
口③③口 |①---|
口②②口 |②---|
口①①口 |③---|
口口口口 |----|
45
口口口口 |①---|
口口②① |----|
口口口口 |②---|
口口口口 |----|
46
口口口口 |①---|
②①口口 |----|
口口口口 |②---|
口口口口 |----|
47
口口口口 |①---|
口口口口 |----|
①口口② |②---|
口口口口 |----|
48
口③③口 |①---|
口②②口 |②---|
口①①口 |③---|
口口口口 |----|
49
口口口口 |①---|
①口口② |----|
口口口口 |②---|
口口口口 |----|
50
口①①口 |①---|
口②②口 |②---|
口③③口 |③---|
口口口口 |----|
51
口口口口 |①---|
口口口口 |----|
①口口② |②---|
口口口口 |----|
52
口③③口 |①---|
口②②口 |②---|
口①①口 |③---|
口口口口 |----|
53
口口口口 |①---|
口口口口 |----|
口口②① |②---|
口口口口 |----|
54
口口口口 |①---|
口口口口 |----|
②①口口 |②---|
口口口口 |----|
55
口②③口 |①---|
口①①口 |②---|
口口口口 |----|
口口口口 |③---|
56
口口口口 |----|
口①②口 |①---|
口口口口 |----|
口口口口 |②---|
57
口口口口 |----|
口口口口 |①---|
口①②口 |----|
口口口口 |②---|
58
口口口口 |----|
口口口口 |①---|
口口口口 |----|
口①②口 |②---|
59
口口口口 |①---|
口口口口 |②---|
①②③④ |③---|
口口口口 |④---|
60
口口口口 |--①-|
口①①口 |----|
口口口口 |----|
口口口口 |----|
最終更新:2018年10月22日 15:34