アットウィキロゴ
キモチコネクト
東雲心菜 meets 日向美ビタースイーツ♪

BASIC

Level: 2
BPM: 150
Notes: 189

1
口口口口 |----|
口口口口 |----|
口口口口 |----|
口口口口 |----|
2
口口口口 |----|
口口口口 |----|
口口口口 |①---|
口口口① |----|
3
口口口口 |①---|
口口口口 |----|
口口∨口
口口①口

口口口口
口口口口
口口口口 |②---|
②口②口 |----|
4
口口口口 |①---|
口口口口 |----|
口∨口口
口①口口

口口口口
口口口口
口口口② |②---|
口②口口 |----|
5
口口口口 |①---|
口口∨口 |----|
口口①口
口口口口

口口口口
口口口口
②口②口 |②---|
口口口口 |----|
6
口口口口 |①---|
口∨口口 |----|
口①口口
口口口口

口口口口
口口口口
口②口∨ |②---|
口口口② |----|
7
口口口口 |①---|
∨口口口 |----|
|口口口
①口口①

口口口口
口口口口
口口口口 |----|
②口口口 |②---|
8
口口口口 |①---|
口口①口 |----|
口②口口 |②---|
口口口口 |----|
9
口口口口 |①---|
口口口口 |----|
口口口口 |----|
口口①口 |----|
10
口口口口 |①---|
口口口口 |----|
口口②口 |②---|
口①口口 |----|
11
口口口口 |①---|
口①口口 |----|
口口口口 |----|
口口口口 |----|
12
口口口口 |----|
口口口口 |----|
口口口口 |----|
口口口口 |----|
13
口口口口 |----|
口口口口 |----|
口口口口 |----|
口口口口 |----|
14
口口口口 |----|
口口口口 |----|
口口口口 |----|
口口口口 |----|
15
口口口口 |①---|
口口口口 |----|
口②②口 |②---|
口口口① |----|
16
口口口口 |①---|
口口口口 |----|
口②②口 |②---|
口①①口 |----|
17
口口口口 |①---|
口口口口 |----|
口②②口 |②---|
①口口口 |----|
18
口口口口 |①---|
口口口口 |----|
口②②口 |②---|
口①①口 |----|
19
④③②① |①---|
口口口口 |②---|
口口口口 |③---|
口口口口 |④---|
20
口口口口 |①---|
④③②① |②---|
口口口口 |③---|
口口口口 |④---|
21
口口口口 |①---|
口口口口 |②---|
④③②① |③---|
口口口口 |④---|
22
口口口口 |①---|
口口口口 |②---|
口口口口 |③---|
④③②① |④---|
23
①②③④ |①---|
口口口口 |②---|
口口口口 |③---|
口口口口 |④---|
24
口口口口 |①---|
①②③④ |②---|
口口口口 |③---|
口口口口 |④---|
25
口口口口 |①---|
口口口口 |②---|
①②③④ |③---|
口口口口 |④---|
26
口口口口 |①---|
口口口口 |②---|
口口口口 |③---|
①②③④ |④---|
27
口口口口 |①---|
口①口口 |----|
口口②口 |②---|
口口口口 |----|
28
口口口口 |①---|
口口口口 |----|
口口②口 |②---|
口①口口 |----|
29
口口口口 |①---|
口①口口 |----|
口口口口 |----|
口口口口 |----|
30
口口口口 |----|
口口口口 |----|
口口口口 |----|
口口口口 |----|
31
口口口口 |①---|
口口①口 |----|
口②口口 |②---|
口口口口 |----|
32
口口口口 |①---|
口口口口 |----|
口②口口 |②---|
口口①口 |----|
33
口口口口 |①---|
口口①口 |----|
口口口口 |----|
口口口口 |----|
34
口口口口 |----|
口口口口 |----|
口口口口 |----|
口口口口 |----|
35
①口口口 |①---|
口口②口 |----|
口口口口 |②---|
口口口口 |----|
36
口口口口 |①---|
口口口口 |----|
①口口口 |②---|
口口②口 |----|
37
口口口口 |①---|
口口口口 |----|
口口口口 |----|
①口口口 |----|
38
口口口口 |----|
口口口口 |----|
口口口口 |----|
口口口口 |----|
39
口口口① |①---|
口②口口 |----|
口口口口 |②---|
口口口口 |----|
40
口口口口 |①---|
口口口口 |----|
口口口① |②---|
口②口口 |----|
41
口口口口 |①---|
口口口口 |----|
口口口口 |----|
口口口① |----|
42
口口口口 |----|
口口口口 |----|
口口口口 |----|
口口口口 |----|
43
口口①① |①---|
②②口口 |----|
口口口口 |②---|
口口口口 |----|
44
②②口口 |①---|
口口①① |----|
口口口口 |②---|
口口口口 |----|
45
口口口口 |①---|
口口①① |----|
②②口口 |②---|
口口口口 |----|
46
口口口口 |①---|
②②口口 |----|
口口①① |②---|
口口口口 |----|
47
口口口口 |①---|
口口口口 |----|
口口①① |②---|
②②口口 |----|
48
口口口口 |①---|
口口口口 |----|
②②口口 |②---|
口口①① |----|
49
②口口② |①---|
口①①口 |----|
口口口口 |②---|
口口口口 |----|
50
口口口口 |----|
口口口口 |①---|
口口口口 |②---|
口①②③ |③---|
51
口口口口 |①---|
口口口∨ |----|
口口口①
口口口口

口口口口
②口口口
③口口② |②---|
口口口口 |③---|
52
口口口口 |①---|
口口口口 |----|
口∨口口
口①口口

口口口口
口口口口
口口③口 |②---|
口②②口 |③---|
53
口口口∨ |①---|
口口口① |----|
口口口口
口口口口

②口口口
③口口②
口口口口 |②---|
口口口口 |③---|
54
口口口口 |①---|
口∨口口 |----|
口①口口
口口口口

口口口口
口口口口
口②∨口 |②---|
口口②口 |----|
55
口口口口 |①---|
∨口口口 |----|
|口口口 |----|
①口①口 |----|
56
口口口口 |①---|
口口③口 |②---|
口②口口 |③---|
①口①口 |----|
57
①①口口 |①---|
口口②② |----|
口口口口 |②---|
口口口口 |----|
58
口口口口 |①---|
口口口口 |----|
①①口口 |②---|
口口②③ |③---|
59
口口口口 |①---|
口口口∨ |----|
口口口①
口口口口

口口口口
②口口口
③口口② |②---|
口口口口 |③---|
60
口口口口 |①---|
口口口口 |----|
口∨口口
口①口口

口口口口
口口口口
口口③口 |②---|
口②②口 |③---|
61
口口口∨ |①---|
口口口① |----|
口口口口
口口口口

②口口口
③口口②
口口口口 |②---|
口口口口 |③---|
62
口口口口 |①---|
口∨口口 |----|
口①口口
口口口口

口口口口
口口口口
口②∨口 |②---|
口口②口 |----|
63
口口口口 |①---|
∨口口口 |----|
|口口口 |----|
①口①口 |----|
64
口口口口 |①---|
口口③口 |②---|
口②口口 |③---|
①口①口 |----|
65
口口口口 |①---|
口口口口 |----|
口②②口 |②---|
①口口① |----|
66
口②②口 |①---|
①口口① |----|
口口口口 |②---|
口口口口 |----|
67
①∨∨① |①---|
口||口 |----|
口②②口 |②---|
口口口口 |----|
68
口口口口 |----|
口口口口 |①---|
口①①口 |----|
口口口口 |----|
69
口口口口 |①---|
口口口口 |----|
口口口口 |②---|
①口口② |----|
70
口口口口 |①---|
口口口口 |----|
口①②口 |②---|
口口口口 |----|
71
口①①口 |①---|
口口口口 |----|
口口口口 |----|
口口口口 |----|
最終更新:2019年10月22日 02:52