アットウィキロゴ
キモチコネクト
東雲心菜 meets 日向美ビタースイーツ♪

ADVANCED

Level: 6
BPM: 150
Notes: 387

1
口口口口 |----|
口口口口 |----|
口口口口 |----|
口口口口 |----|
2
口口口① |----|
口口口② |----|
口口口口 |①---|
口口口口 |②---|
3
口口口口 |①---|
口口口口 |----|
口口>①
口口口口

②口口口
③口口口
口口口② |②---|
口口口口 |③---|
4
口口口口 |①---|
口口口口 |----|
①<口口
口口口口

口口口口
口口②口
②口③口 |②---|
口口口口 |③---|
5
口口口口 |①---|
口口口口 |----|
口口口口
口>①口

口>―⑤
④口口口
口口口③ |②-③-|
②口②口 |④-⑤-|
6
口口口① |----|
①<口口 |----|
口口口口 |①---|
口口口口

口口口口
②口口口
口口口②
口口口口 |--②-|
7
口口口口 |①---|
口口口口 |----|
口口口口
①―<口

口口口口
口口口口
口口口口 |----|
②口口口 |②---|
8
口口②① |①-②-|
⑤―<口 |--③-|
口口④口 |--④-|
口口口③ |--⑤-|
9
口口口口 |----|
①口口口 |--①-|
口③口口 |----|
口②口口 |②-③-|
10
口口口口 |①---|
口①―<
口口口口
口口口口

③口口口
口②口④ |--②-|
口口口② |③---|
口口口口 |--④-|
11
口口口口 |①---|
口口口口 |----|
口口口口
①――<

口口口②
③口口口
口口口口 |②---|
②口口口 |--③-|
12
口口口口 |①---|
口口口口 |----|
口口口口
――①

②口口口
口口口③
口口口口 |②---|
口口口② |--③-|
13
口口口口 |①---|
口口口口 |----|
口口口口
①――<

口口口②
③口口口
口口口口 |②---|
②口口口 |--③-|
14
口口口口 |①---|
口口口口 |----|
口口口口
――①

口口口口
口口口口
口口口口 |②---|
口口口② |----|
15
②⑤口① |①---|
口④③口 |②---|
口③④口 |③-④-|
①口⑤② |⑤---|
16
口口口① |①-②-|
③⑤④② |③---|
②④⑤③ |④---|
①口口口 |⑤---|
17
②⑤口① |①---|
口④③口 |②---|
口③④口 |③-④-|
①口⑤② |⑤---|
18
口口口① |①-②-|
③口口② |③---|
②口口③
①口口口

⑤口口⑤
口口④口
口④口口 |④---|
口口口口 |⑤---|
19
口口口⑦ |①-②-|
口口口④ |③-④-|
⑤⑥口口 |--⑤-|
①②③口 |⑥-⑦-|
20
口口口口 |--①-|
①②口口 |②-③-|
口口口口 |--④-|
④⑤⑥③ |⑤-⑥-|
21
⑦口口口 |①-②-|
④口⑥⑤ |③-④-|
口③②① |--⑤-|
口口口口 |⑥-⑦-|
22
口口②① |--①-|
口口口口 |②-③-|
口口口口 |--④-|
③⑥⑤④ |⑤-⑥-|
23
口口口⑦ |①-②-|
⑤⑥口④ |③-④-|
①②③口 |--⑤-|
口口口口 |⑥-⑦-|
24
①②口口 |--①-|
口口口口 |②-③-|
口口口口 |--④-|
④⑤⑥③ |⑤-⑥-|
25
⑦口口口 |①-②-|
④口⑥⑤ |③-④-|
口③②① |--⑤-|
口口口口 |⑥-⑦-|
26
口口②① |--①-|
口口口口 |②-③-|
口口口口 |--④-|
③⑥⑤④ |⑤-⑥-|
27
口口①① |①---|
④③③口 |②---|
口口②② |③---|
口口口⑤ |④-⑤-|
28
口口口口 |①---|
口口口口
口口∨口
口口①口

口口口口
口口口口 |--②-|
口∨口口
口②②口

口口口口
口口口口
口口③口 |----|
口③口口 |--③-|
29
口口口口 |①---|
口口口口 |----|
∨口口口
①口口口

口口口口
口口口口
口口口口 |②---|
②口口口 |----|
30
口口口口 |----|
口口口口 |----|
口口口口 |----|
口口口口 |----|
31
①①口口 |①---|
口③③④ |②---|
②②口口 |③---|
⑤口口口 |④-⑤-|
32
口口口口 |①---|
口口口口 |--②-|
口口∨口
口①②口

口口口口
口口>④
③口口口 |----|
口口③口 |③-④-|
33
口口口口 |----|
口口口① |①---|
口口口口 |----|
口口口口 |----|
34
口口口口 |----|
口口口口 |----|
口口口口 |----|
口口口口 |----|
35
口口①① |①---|
④③③口 |②---|
口口②② |③---|
口口口⑤ |④-⑤-|
36
口口口口 |①---|
口口口口
口口∨口
口口①口

④口口口
口②口③ |②-③-|
口口⑤口 |--④-|
口口②口 |--⑤-|
37
口口口口 |①---|
口口口口 |----|
∨口口口
①口口口

口口口口
口口口口
口口口口 |②---|
②口口口 |----|
38
口口口口 |----|
口口口口 |----|
口口口口 |----|
口口口口 |----|
39
①①口口 |①---|
口口口口 |②-③-|
②②口口
口口口③

⑥口口⑤
④口口口
口口口口 |④-⑤-|
口口口口 |⑥---|
40
口①口口 |①-②-|
口口②口 |③-④-|
口③∨口
口口④口

⑦口⑥口
∧⑤口口
口口口口 |--⑤-|
口口⑤口 |⑥-⑦-|
41
①口口口 |----|
口口口口 |----|
口口口口 |①---|
口口口口 |----|
42
口口口口 |----|
口口口口 |----|
口口口口 |----|
口口口口 |----|
43
口口③④ |----|
口口③④ |①-②-|
口口①① |----|
口口②② |③-④-|
44
②②口口 |----|
①①口口 |①-②-|
④③口口 |----|
④③口口 |③-④-|
45
口口④③ |----|
口口④③ |①-②-|
口口②② |----|
口口①① |③-④-|
46
①①口口 |----|
②②口口 |①-②-|
③④口口 |----|
③④口口 |③-④-|
47
口口③④ |----|
口口③④ |①-②-|
口口①① |----|
口口②② |③-④-|
48
②②口口 |----|
①①口口 |①-②-|
④③口口 |----|
④③口口 |③-④-|
49
口口口口 |①---|
口>―①
口口口口
口口口口

②―<口
口口口② |--②-|
口口口口 |----|
口口口口 |----|
50
①口口口 |①---|
口④④口 |②---|
口③③口 |③---|
口②②口 |④---|
51
①<>① |①---|
口口口口
口口口口
口口口口

②口口②
③③口口 |②---|
口口④④ |③---|
口口口口 |④---|
52
口口口口 |①---|
口口口口
∨∨口口
①①口口

口口口口
④④口口 |②---|
口口③③ |③---|
②②口口 |④---|
53
口口①① |①---|
口口∧∧
口口口口
口口口口

口口②②
口口口口 |②---|
口口口口
口口口口

⑥―<口
口⑤口口
口口④口 |③-④-|
口口口③ |⑤-⑥-|
54
①口口口 |----|
口>―② |①---|
口口口口 |②---|
口口口口

口口口口
口口口③
③口口口
口口口口 |--③-|
55
口口口口 |①---|
口口口口 |----|
口口口口
――①

口口口口
口口口口
口口口口 |----|
口口口② |②---|
56
口口口④ |①-②-|
⑦③口口 |③-④-|
⑤口②⑥ |--⑤-|
①口口口 |⑥-⑦-|
57
口③口④ |①---|
∨口口① |②-③-|
|口口口 |--④-|
⑤口②口 |--⑤-|
58
口口口口 |----|
口③③口 |①---|
口②②口 |②---|
①口口口 |③---|
59
①<>① |①---|
口口口口
口口口口
口口口口

②口口②
③③口口 |②---|
口口④④ |③---|
口口口口 |④---|
60
口口口口 |①---|
口口口口
∨∨口口
①①口口

口口口口
口口口口 |②---|
③④⑤口 |③-④-|
②②口口 |⑤---|
61
口口①① |①---|
口口∧∧
口口口口
口口口口

口口②②
口口口口 |②---|
口口口口
口口口口

⑥―<口
口⑤口口
口口④口 |③-④-|
口口口③ |⑤-⑥-|
62
①口口口 |----|
口>―② |①---|
口口口口 |②---|
口口口口

口口口口
口口口③
③口口口
口口口口 |--③-|
63
口口口口 |①---|
口口口口 |----|
口口口口
――①

口口口口
口口口口
口口口口 |----|
口口口② |②---|
64
口口口④ |①-②-|
口③⑥⑤ |③-④-|
口⑦②口 |--⑤-|
①口口口 |⑥-⑦-|
65
口②口口 |①---|
口口口口 |②-③-|
①口∨口
口口③口

口口口口
口口口口
口口口口 |----|
口口④口 |④---|
66
④③②① |①-②-|
口口⑥⑥ |③-④-|
口口口口 |--⑤-|
口口⑤⑤ |--⑥-|
67
口口口口 |①---|
①①口口 |--②-|
∨∨②② |③---|
③③口口 |----|
68
口口口口 |----|
口口口口 |----|
口口口口 |①---|
①①口口 |----|
69
⑦口口口 |①-②-|
④口口口 |③-④-|
口口⑥⑤ |--⑤-|
口③②① |⑥-⑦-|
70
口口口口 |--①-|
口口②① |②-③-|
口口口口 |--④-|
③⑥⑤④ |⑤-⑥-|
71
∨口口∨ |①---|
|口口| |----|
①口口① |----|
口口口口 |----|
72
口口口口 |----|
口口口口 |----|
口口口口 |----|
口口口口 |----|
73
口口口口 |----|
口口口口 |----|
口口口口 |----|
口口口口 |----|
74
口②③口 |①-②-|
④口口⑤ |③---|
①口口① |④-⑤-|
⑥口口⑦ |⑥-⑦-|
最終更新:2019年10月22日 02:52