アットウィキロゴ
水月鏡花のコノテーション
日向美ビタースイーツ♪

EXTREME

Level: 9
BPM: 185
Notes: 725

1
口口口口 |----|
口口口口 |----|
口口口口 |----|
口口口口 |----|
2
口口口口 |----|
口口口口 |----|
口口口口 |----|
口口口口 |----|
3
口口口口 |----|
口③④口 |①---|
口②口口 |②---|
口①口口 |③-④-|
4
口口口口 |----|
口口口口 |①---|
口口口口 |②---|
①②③口 |③---|
5
口口口口 |①---|
口口口∨ |----|
口口口|
口口口①

口∨口口
口|口口
口②口口 |----|
口口口② |②---|
6
④③②① |----|
口口口② |----|
口①口③ |①-②-|
口口口④ |③-④-|
7
口口口口 |①---|
①口口口 |----|
∧口口口
口>①口

口∨口口
②④口口
口口③口 |②---|
口口②口 |③-④-|
8
口口∨口 |----|
口①②口 |①---|
口口口口 |②---|
口口口口 |----|
9
∨口口口 |①---|
②口①口 |②---|
①口口口 |----|
口口口口 |----|
10
口口口口 |①---|
①口口口 |----|
口口口口 |----|
口口口口 |----|
11
口口口口 |----|
口口口① |①---|
口口口② |②---|
口③④口 |③-④-|
12
口口口口 |----|
口口口① |①---|
口口②口 |②---|
口③口口 |③---|
13
口口口口 |①---|
∨口口口 |----|
①口口口
口口口口

口口口口
口口∨口
②口②口 |----|
口口口口 |②---|
14
①②③④ |----|
②口口口 |----|
③口①口 |①-②-|
④口口口 |③-④-|
15
口口口口 |①---|
口口口① |----|
口口口∧
口①<口

口∨口口
口③口②
口口②口 |----|
口②口口 |②-③-|
16
口口∨口 |----|
口①②口 |①---|
口口口口 |②---|
口口口口 |----|
17
口口口∨ |①---|
①口①② |②---|
口口口口 |----|
口口口口 |----|
18
口口口口 |①---|
口口口① |----|
口口③口 |--②-|
口②口口 |③---|
19
①口①口 |①-②-|
⑤③⑤③ |--③-|
口②口② |④---|
④⑥④⑥ |⑤-⑥-|
20
④①①⑤ |--①-|
口口口口 |②---|
⑥②②③ |③-④-|
口口口口 |⑤-⑥-|
21
④⑥④⑥ |①-②-|
口②口② |--③-|
⑤③⑤③ |④---|
①口①口 |⑤-⑥-|
22
口口口口 |--①-|
⑥①①③ |②---|
口口口口 |③-④-|
④②②⑤ |⑤-⑥-|
23
①①①口 |①-②-|
⑤③⑤③ |--③-|
口②口② |④---|
④⑥④⑥ |⑤-⑥-|
24
①⑤④① |--①-|
口口口口 |②---|
⑥②②③ |③-④-|
口口口口 |⑤-⑥-|
25
④⑥④⑥ |①-②-|
口②口② |--③-|
⑤③⑤③ |④---|
①①①口 |⑤-⑥-|
26
口口口口 |--①-|
口①①口 |②---|
口口口口 |----|
②②< |----|
27
口④⑤口 |①---|
口口③口 |②---|
口口②口 |③---|
口①①口 |④-⑤-|
28
口口口口 |----|
②口口口 |----|
口①口口 |①---|
口口口口 |②---|
29
口口②口 |①---|
口①口① |②---|
口③口③ |③---|
口④⑤口 |④-⑤-|
30
口口口口 |----|
口口口口 |----|
口口口口 |----|
口口口口 |----|
31
①口口① |①---|
口口口口 |----|
②口口② |②---|
口③④口 |③-④-|
32
口④③口 |----|
口①口口 |①---|
口②②口 |②---|
口口口口 |③-④-|
33
③口口① |①---|
口④口② |②---|
口口⑤口 |③-④-|
口口口⑥ |⑤-⑥-|
34
⑤口口① |--①-|
⑥口口口 |②③④-|
口口口口 |⑤-⑥-|
②③④口 |----|
35
④④②② |①---|
口①①③ |②-③-|
①⑥⑥① |④---|
口⑤⑤口 |⑤-⑥-|
36
③口口④ |--①-|
③⑤①② |--②-|
口⑤口① |③-④-|
口口口口 |⑤---|
37
口口口口 |①---|
口口口口 |②-③-|
③口口口
②②①①

⑥口④④
口⑤口口
口口⑤口 |④---|
口口口⑥ |⑤-⑥-|
38
④④⑤⑤ |--①-|
口口①② |--②-|
口口口① |③---|
口口③口 |④-⑤-|
39
⑥⑦口口 |①-②-|
口③④口 |③-④-|
口①②⑤ |--⑤-|
口口口口 |⑥-⑦-|
40
④口口③ |--①-|
②①⑤③ |--②-|
①口⑤口 |③-④-|
口口口口 |⑤---|
41
口④⑧口 |①-②-|
口③⑦⑧ |③-④-|
口②⑥口 |⑤-⑥-|
①①⑤⑤ |⑦-⑧-|
42
①⑥<② |--①-|
⑥<口⑤ |②---|
④口⑤③ |③-④-|
口④③口 |⑤-⑥-|
43
口⑤⑥① |--①-|
⑤口②⑦ |②-③-|
口口口⑤ |④-⑤-|
口口④③ |⑥-⑦-|
44
口>⑥口 |--①-|
⑤口>⑥ |--②-|
③⑤口④ |③-④-|
①③④② |⑤-⑥-|
45
①口④⑦ |①---|
⑦④口④ |②-③-|
③⑥口口 |④-⑤-|
②⑤⑥口 |⑥-⑦-|
46
①④<口 |----|
④<①② |①---|
②口③口 |②---|
口口口③ |③-④-|
47
口⑦⑦① |①-②-|
⑦口③⑤ |③-④-|
口口⑥② |⑤-⑥-|
口口④⑧ |⑦-⑧-|
48
①口口⑥ |--①-|
口口⑤口 |--②-|
口④口② |③-④-|
③口口口 |⑤-⑥-|
49
口>①口 |①---|
口③>① |②-③-|
②口口口
口口口口

⑦口④⑦
口口口④
口口口口 |④-⑤-|
⑥⑤口⑥ |⑥-⑦-|
50
口口口口 |----|
口③③口 |①---|
②②①① |②---|
口口口口 |③---|
51
③∨∨③ |①---|
口④④口 |--②-|
②②②② |--③-|
①①①① |④---|
52
口口口口 |----|
口①①① |①-②-|
②⑥⑤口 |③-④-|
口④口③ |⑤-⑥-|
53
①①①① |①---|
②②②② |--②-|
口④④口 |--③-|
③∧∧③ |④---|
54
②口口⑤ |----|
⑥④口③ |①-②-|
口①①① |③-④-|
口口口口 |⑤-⑥-|
55
③∨∨③ |①---|
口④④口 |--②-|
②②②② |--③-|
①①①① |④---|
56
口口口口 |----|
口①①口 |①---|
口③口③ |②---|
②口口口 |③---|
57
④口①④ |①-②-|
①⑦口⑦ |③-④-|
口口⑧⑥ |⑤-⑥-|
⑤③口② |⑦-⑧-|
58
⑤②⑥口 |①-②-|
口口②⑥ |③-④-|
①③口⑤ |⑤---|
⑥口⑤④ |⑥---|
59
口①―< |①---|
①―<口 |②-③-|
口口③口
口口口②

口⑥口⑥
⑥口⑥口
⑦口口④ |④-⑤-|
口⑦⑤口 |⑥-⑦-|
60
②口②口 |--①-|
口④⑦④ |②-③-|
⑥口③⑦ |④-⑤-|
①⑥口⑤ |⑥-⑦-|
61
①口②口 |--①-|
口口口口 |②---|
口口②口
口口口口

口>―③
∨口口口
|口口口 |③---|
③口口口

口口口④
口口>④
口∨口口
④④口口 |④---|
62
口口口口 |①---|
口口∨①
口>┼①
口①①口

口②口口
②┼<口 |--②-|
口∧口②
口口②口

口③口口
③口口口
口口③口 |----|
口口口③ |③---|
63
―①口 |①---|
口>―① |②-③-|
口③口口
②口口口

⑥口⑥⑦
口⑥⑦⑥
④口口口 |④-⑤-|
口⑤口口 |⑥-⑦-|
64
⑦<>⑦ |--①-|
口⑥⑥口 |②-③-|
③⑤④② |④-⑤-|
①口④② |⑥-⑦-|
65
①口口① |----|
①口口① |①---|
口口口∨ |②---|
口口口②

口口口口
口口口口
∨口口口
③口口③ |③---|
66
口口口口 |①---|
口口∨口
口口①口
①口口口

口④口口
⑤―<口 |--②-|
③②②口 |--③-|
口口口口 |④-⑤-|
67
口口②口 |--①-|
①>―③ |②-③-|
口口口①
口口口口

口口口口
口⑤口④
⑥―<口 |--④-|
④口口口 |⑤-⑥-|
68
口口口口 |--①-|
口口②口 |②-③-|
①>―③
口口口①

⑤⑤口口
口口口口
口口口④ |--④-|
口口口口 |⑤---|
69
口口①口 |①---|
口②口口 |②---|
口口③口 |③---|
口④口口 |④---|
70
②④口② |①---|
⑤―<口 |--②-|
③口口口 |--③-|
①口口① |④-⑤-|
71
口口②口 |--①-|
①>―③ |②-③-|
口口口①
口口口口

口口口口
口⑤口④
⑥―<口 |--④-|
④口口口 |⑤-⑥-|
72
口口口口 |--①-|
口口②口 |②-③-|
①>―③
口口口①

⑤⑤口口
口口口口
口口口④ |--④-|
口口口口 |⑤---|
73
口口①口 |①---|
口②口口 |②---|
口口③口 |③---|
口④口口 |④---|
74
口②②口 |①---|
③口口口 |--②-|
口口口口 |----|
①口口① |③---|
75
①口口口 |①---|
|口②② |--②-|
|口③③ |----|
∧口①① |③---|
76
①②口② |①-②-|
口④口③ |----|
口③口口 |③---|
口④④③ |④---|
77
∨口①① |①---|
|口③③ |--②-|
|口②② |----|
①口口口 |③---|
78
口④口口 |①-②-|
口口口④ |----|
③④③口 |③---|
①②③② |④---|
79
①口①① |①---|
|口③③ |--②-|
|口②② |----|
∧口口口 |③---|
80
①口口口 |①-②-|
③④④口 |----|
口③③口 |③---|
口②④② |④---|
81
口口①① |①---|
口口③③ |--②-|
∨口②② |----|
①口口口 |③---|
82
口口口口 |--①-|
口②③口 |----|
口③②口 |②---|
①口①① |③---|
83
①⑦③② |①-②-|
①⑦口⑧ |③-④-|
④口口口 |⑤-⑥-|
④口⑥⑤ |⑦-⑧-|
84
⑥口口⑤ |①-②-|
口口①口 |③-④-|
口②④③ |⑤---|
⑤②口⑥ |⑥---|
85
⑦①口⑧ |①-②-|
⑦①③② |③-④-|
④口⑥⑤ |⑤-⑥-|
④口口口 |⑦-⑧-|
86
口口①口 |①-②-|
⑥口口⑤ |③-④-|
⑤②口⑥ |⑤---|
口②④③ |⑥---|
87
⑦⑦②口 |①-②-|
口口③口 |③-④-|
④④口⑥ |⑤-⑥-|
①①⑧⑤ |⑦-⑧-|
88
口⑥⑤③ |①-②-|
②②口④ |③-④-|
口口①口 |⑤---|
口⑤⑥口 |⑥---|
89
口口⑤口 |①-②-|
④④⑥⑧ |③-④-|
①①口③ |⑤-⑥-|
⑦⑦口② |⑦-⑧-|
90
②②口① |①-②-|
⑤口口⑥ |③-④-|
⑥口④⑤ |⑤---|
口口③口 |⑥---|
91
口口①⑤ |①-②-|
⑥②口口 |③-④-|
口口③⑦ |⑤-⑥-|
⑧④口口 |⑦-⑧-|
92
口口①口 |①-②-|
口②口口 |③-④-|
⑦⑧③口 |⑤-⑥-|
口④⑥⑤ |⑦-⑧-|
93
口口⑤① |①-②-|
②⑥口口 |③-④-|
口口⑦③ |⑤-⑥-|
④⑧口口 |⑦-⑧-|
94
口口口① |①-②-|
②口口口 |③-④-|
⑦⑧口③ |⑤-⑥-|
④口⑥⑤ |⑦-⑧-|
95
口口①⑤ |①-②-|
⑥②口口 |③-④-|
口口③⑦ |⑤-⑥-|
⑧④口口 |⑦-⑧-|
96
口口①口 |①-②-|
口②口口 |③-④-|
⑦⑧③口 |⑤-⑥-|
口④⑥⑤ |⑦-⑧-|
最終更新:2019年10月22日 02:53