アットウィキロゴ
M.A.Y.U.
Ryu☆ feat.MAYU

BASIC

Level: 3
BPM: 128
Notes: 232

1
口口口口 |----|
口口口口 |----|
口口口口 |----|
口口口口 |----|
2
①口口口 |①---|
口口口口 |----|
口口口口 |----|
口口口口 |----|
3
口①口口 |①---|
口口口口 |----|
口口口口 |----|
口口口口 |----|
4
口口口口 |①---|
口口口① |----|
口口口口 |----|
口口口口 |----|
5
口口口口 |①---|
口口①口 |----|
口口口口 |----|
口口口口 |----|
6
口口口口 |①---|
口口口口 |----|
①口口口 |----|
口口口口 |----|
7
口口口口 |①---|
口口口口 |----|
口①口口 |----|
口口口口 |----|
8
口口口口 |①---|
口口口口 |----|
口口口口 |----|
口口口① |----|
9
口口口口 |①---|
口口口口 |----|
口口口口 |----|
口口①口 |----|
10
口口口口 |①---|
②口口口 |----|
①①口口 |②---|
口口口口 |----|
11
口口口口 |①---|
口②口口 |----|
①①口口 |②---|
口口口口 |----|
12
口口口口 |①---|
口口②口 |----|
口口①① |②---|
口口口口 |----|
13
口口口口 |①---|
口口口② |----|
口口①① |②---|
口口口口 |----|
14
口①①口 |①---|
口口②口 |----|
口口口口 |②---|
口口口口 |----|
15
口①①口 |①---|
口②口口 |----|
口口口口 |②---|
口口口口 |----|
16
口口口口 |①---|
④③②① |②---|
口口口口 |③---|
口口口口 |④---|
17
⑤口口⑤ |①-②-|
⑥④③⑥ |③-④-|
口②①口 |⑤---|
口口口口 |⑥---|
18
口口口口 |①-|
口口口口
①<口口
口口口口

口口口口 |-②|
口口>③ |--③-|
②口口口
口口口口

口口口口
口口口④
口口口口 |----|
口口口口 |④---|
19
口口口口 |①-|
口口口口
口口>①
口口口口

口口口口 |-②|
③<口口 |--③-|
口口口② |----|
口口口口 |----|
20
口口口口 |①---|
①口>① |----|
口口口口 |----|
口口口口 |----|
21
口口口口 |----|
口口口① |----|
口口口口 |----|
口口口口 |①---|
22
口口口口 |①-|
口口口口
①<口口
口口口口

口口口口 |-②|
口口>③ |--③-|
②口口口
口口口口

口口口口
口口口④
口口口口 |----|
口口口口 |④---|
23
口口口口 |①-|
口口口口
口口>①
口口口口

口口口口 |-②|
③<口口 |--③-|
口口口② |----|
口口口口 |----|
24
口口口口 |①---|
①口>① |----|
口口口口 |----|
口口口口 |----|
25
口口口口 |----|
口口口① |----|
口口口口 |----|
口口口口 |①---|
26
口①①口 |①--②|
口②②口 |--③-|
口③③口 |----|
口口口口 |----|
27
口口口口 |①--②|
③口口③ |--③-|
②口口② |----|
①口口① |----|
28
口口口口 |①---|
口口口口 |----|
口口口口 |----|
①①< |----|
29
口口口口 |----|
口口口口 |----|
口口口口 |----|
口①①口 |①---|
30
口口口口 |①--②|
①②③口 |--③-|
①②③口 |----|
口口口口 |----|
31
口口口口 |①--②|
口③②① |--③-|
口③②① |----|
口口口口 |----|
32
口②①口 |①-②-|
口④③口 |③-④-|
口⑥⑤口 |⑤-⑥-|
口⑧⑦口 |⑦-⑧-|
33
口口口口 |①---|
②④④② |②---|
①③③① |③---|
口口口口 |④---|
34
①①①① |①---|
口口口口 |②-③-|
口④③② |④---|
口口⑤口 |⑤---|
35
⑤口口⑤ |①---|
口口口口 |②-③-|
②③④口 |④---|
口①口口 |⑤---|
36
口口口口 |①---|
①口口① |②-③-|
②③④口 |④---|
口⑤口口 |⑤---|
37
⑤口口⑤ |①---|
口口口口 |②-③-|
口④③② |④---|
口口①口 |⑤---|
38
口口口口 |①---|
①口口① |②-③-|
口④③② |④---|
口口⑤口 |⑤---|
39
⑤口口⑤ |①---|
口口口口 |②-③-|
②③④口 |④---|
口①口口 |⑤---|
40
口口口口 |①---|
①口口① |②-③-|
②③④口 |④---|
口⑤口口 |⑤---|
41
口口口口 |①---|
⑤口口⑤ |②-③-|
口④③② |④---|
口口①口 |⑤---|
42
①口口① |①---|
口口②口 |②-③-|
口③口口 |④---|
⑤口④口 |⑤---|
43
口口口口 |①---|
口②⑤⑤ |②-③-|
口口③口 |④---|
口④口① |⑤---|
44
口口①① |①---|
口②口口 |②-③-|
口口③口 |④---|
口④口⑤ |⑤---|
45
口口口口 |①---|
⑤⑤②口 |②-③-|
口③口口 |④---|
①口④口 |⑤---|
46
①①口口 |①---|
口口②口 |②-③-|
口③口口 |④---|
⑤口④口 |⑤---|
47
口口口口 |①---|
口②⑤⑤ |②-③-|
口口③口 |④---|
口④口① |⑤---|
48
口口①① |①---|
口②口口 |②-③-|
口口③口 |④---|
口④口⑤ |⑤---|
49
口口口口 |①---|
口口②口 |②-③-|
⑤③口⑤ |④---|
①口④口 |⑤---|
50
口口口口 |①-|
①<口口
口口口口
口口口口

口口口口 |-②|
②>④③ |--③-|
口口口口 |④---|
口口口口

口口口口
口口⑤口
口口口口
口口口口 |⑤---|
51
口口口口 |①-|
口口口口
①<口口
口口口口

口口口口 |-②|
口口口口 |--③-|
②>④③ |④---|
口口口口 |----|
52
口口口口 |①---|
∨∨口口 |----|
||①口 |----|
①①口口 |----|
53
口口口口 |----|
口口口口 |----|
口口口口 |----|
①①口口 |①---|
54
口口口口 |①-|
口口>①
口口口口
口口口口

口口口口 |-②|
③④<② |--③-|
口口口口 |④---|
口口口口

口口口口
口⑤口口
口口口口
口口口口 |⑤---|
55
口口口口 |①-|
口口口口
口口>①
口口口口

口口口口 |-②|
口口口口 |--③-|
③④<② |④---|
口口口口 |----|
56
口口口口 |①---|
口口∨∨ |----|
口①|| |----|
口口①① |----|
57
口口口口 |----|
口②②口 |----|
口口口口 |①---|
口口①① |②---|
58
口口口口 |①---|
口口口口 |----|
口①①口 |----|
口口口口 |----|
最終更新:2019年10月22日 02:56