アットウィキロゴ
ウィリアム・テル序曲
W.T.Orchestra

BASIC

Level: 3
BPM: 120-190
Notes: 223

BPM: 120
1
口口口口 |----|
口口口口 |----|
口口口口 |----|
口口口口 |----|
2
②口口① |①---|
口口口口 |----|
口口口口 |②---|
口口口口 |----|
3
口口口口 |①---|
④口口③ |②---|
②口口① |③---|
口口口口 |④---|
4
口口口口 |①---|
口④③口 |②---|
口②①口 |③---|
口口口口 |④---|
5
②口口① |①---|
口口口口 |----|
口口口口 |②---|
口口口口 |----|
6
口口口口 |①---|
②口口① |②---|
④口口③ |③---|
口口口口 |④---|
7
口口口口 |①---|
口口口口 |----|
口口口口 |----|
口①①口 |----|
8
口口口口 |----|
口口口口 |----|
口口口口 |----|
口口口口 |----|

BPM: 125
9
①②口口 |①---|
③④口口 |②---|
口口口口 |③---|
口口口口 |④---|
10
口口①② |①---|
口口③④ |②---|
口口口口 |③---|
口口口口 |④---|

BPM: 126
11
口口口口 |①---|
口口口口 |②---|
口①②口 |③---|
口③④口 |④---|
12
①口口口 |①---|
口②②口 |----|
口③③口 |②---|
口口口口 |③---|

BPM: 127
13
口口②① |①---|
口口④③ |②---|
口口口口 |③---|
口口口口 |④---|
14
②①口口 |①---|
④③口口 |②---|
口口口口 |③---|
口口口口 |④---|

BPM: 128
15
口口口口 |①---|
口口口口 |②---|
口②①口 |③---|
口④③口 |④---|
16
口口口① |①---|
口②②口 |----|
口③③口 |②---|
口口口口 |③---|

BPM: 131
17
①口口口 |①---|
②口口口 |②---|
③口口口 |③---|
口口④口 |④---|

BPM: 132
18
口③口口 |①---|
口口④口 |②---|
口⑤②口 |③-④-|
口①口口 |⑤---|

BPM: 133
19
口口口① |①---|
口口口② |②---|
口口口③ |③---|
口④口口 |④---|

BPM: 134
20
口口③口 |①---|
口④口口 |②---|
口②⑤口 |③-④-|
口口①口 |⑤---|

BPM: 135
21
①口口口 |①---|
②口口口 |②---|
③口口口 |③---|
口口④口 |④---|

BPM: 136
22
口③口口 |①---|
口口④口 |②---|
口⑤②口 |③-④-|
口①口口 |⑤---|

BPM: 137
23
口口口① |①---|
口口口② |②---|
口口口口
口口口口

BPM: 138
口口口口
口口口口
口口口③ |③---|
口④口口 |④---|

BPM: 139
24
口②口口 |①---|
口口③口 |②-③-|
口口口口
口口①口

BPM: 140
口口口口
口口口口
口④口口 |④---|
口口口口 |----|

BPM: 141
25
口②①口 |①---|
口口口口 |②---|
口口口口
口口口口

BPM: 142
口口口口
口④③口
口口口口 |③---|
口口口口 |④---|

BPM: 143
26
口口口口 |①---|
口口口口 |②---|
口②①口
口口口口

BPM: 144
口口口口
口口口口
口口口口 |③---|
口④③口 |④---|

BPM: 145
27
②口口① |①---|
口口口口 |②---|
口口口口
口口口口

BPM: 146
口口口口
④口口③
口口口口 |③---|
口口口口 |④---|

BPM: 147
28
口口口口 |①---|
口口口口 |②---|
②口口①
口口口口

BPM: 148
口口口口
口口口口
口口口口 |③---|
口③③口 |----|

BPM: 149
29
①②口口 |①---|
口口口口 |②---|
口口口口
口口口口

BPM: 150
口口口口
③④口口
口口口口 |③---|
口口口口 |④---|

BPM: 151
30
口口①② |①---|
口口口口 |②---|
口口口口
口口口口

BPM: 152
口口口口
口口③④
口口口口 |③---|
口口口口 |④---|

BPM: 153
31
口口口口 |①---|
口口口口 |②---|
口①②口
口口口口

BPM: 154
口口口口
口口口口
口口口口 |③---|
口③④口 |④---|

BPM: 155
32
①口口口 |①---|
口口口口 |----|
口口口口
口口口口

BPM: 156
口口口口
口②②口
口③③口 |②---|
口口口口 |③---|

BPM: 157
33
口口②① |①---|
口口口口 |②---|
口口口口
口口口口

BPM: 158
口口口口
口口④③
口口口口 |③---|
口口口口 |④---|

BPM: 159
34
②①口口 |①---|
口口口口 |②---|
口口口口
口口口口

BPM: 160
口口口口
④③口口
口口口口 |③---|
口口口口 |④---|

BPM: 161
35
口口口口 |①---|
口口口口 |②---|
口②①口
口口口口

BPM: 162
口口口口
口口口口
口口口口 |③---|
口④③口 |④---|

BPM: 163
36
口口口① |①---|
口口口口 |----|
口口口口
口口口口

BPM: 164
口口口口
口口口口
③口口口 |②---|
②口口口 |③---|

BPM: 165
37
②口口口 |①---|
①口口口 |②---|
口口口口
口口口口

BPM: 166
口口③口
口④口口
口口口口 |③---|
口口口口 |④---|

BPM: 167
38
口口口口 |①---|
口口口口 |②---|
口口①口
口②口口

BPM: 168
口口口口
口口口口
口口口④ |③---|
口口口③ |④---|

BPM: 169
39
口口口② |①---|
口口口① |②---|
口口口口
口口口口

BPM: 170
口③口口
口口④口
口口口口 |③---|
口口口口 |④---|

BPM: 171
40
口口口口 |①---|
口口口口 |②---|
口①口口
口口②口

BPM: 172
③口口口
口④口口
口口口口 |③---|
口口口口 |④---|

BPM: 173
41
口口口口 |①---|
口口口口 |②---|
口口①口
口口口②

BPM: 174
口口口③
口口④口
口口口口 |③---|
口口口口 |④---|

BPM: 175
42
口口口口 |①---|
口口口口 |②---|
口①口口
②口口口

BPM: 176
口口③口
口口④口
口口口口 |③---|
口口口口 |④---|

BPM: 177
43
口口口口 |①---|
口口口口 |②---|
口口②口
口口①口

BPM: 178
口③口口
口④口口
口口口口 |③---|
口口口口 |④---|

BPM: 179
44
口口口口 |①---|
口口口口 |②---|
口②口口
口①口口

BPM: 180
口口口③
口口口④
口口口口 |③---|
口口口口 |④---|

BPM: 181
45
口口口口 |①---|
口口口口 |②---|
口口口②
口口口①

BPM: 182
③口口口
④口口口
口口口口 |③---|
口口口口 |④---|

BPM: 183
46
口口口口 |①---|
口口口口 |②---|
②口口口
①口口口

BPM: 184
口④③口
口口口口
口口口口 |③---|
口口口口 |④---|

BPM: 185
47
口口口口 |①---|
口②①口 |②---|
口口口口
口口口口

BPM: 186
口口口口
口口口口
口④③口 |③---|
口口口口 |④---|

BPM: 187
48
口口口口 |①---|
口口口口 |②---|
口口口口
口②①口

BPM: 188
口口口口
口口口口
口口口口 |----|
口口口口 |----|

BPM: 189
49
口口口口 |----|
口口口口 |----|
口口口口
口口口口

BPM: 190
口①①口
口②②口
口口口口 |①---|
口口口口 |②---|
50
③口口③ |①---|
④口口④ |②---|
口①①口 |③---|
口②②口 |④---|
51
口口③口 |①---|
口口口口 |②---|
①口口① |③---|
②口口② |----|
52
口口口口 |①---|
口①口口 |----|
口口②口 |②---|
口口口口 |----|
53
口②口口 |①---|
口口口口 |----|
口口口口 |②---|
口①口口 |----|
54
口口口口 |①---|
口口①口 |----|
口②口口 |②---|
口口口口 |----|
55
口口口口 |①---|
口口口口 |----|
②口口③ |②---|
口口①口 |③---|
56
口口口口 |①---|
①口口② |②---|
口口口口 |③---|
口③④口 |④---|
57
口①②口 |①---|
口口口口 |②---|
口③③口 |③---|
口口口口 |----|
58
①口口② |①---|
口③③口 |②---|
口口口口 |③---|
口口口口 |----|
59
口口口口 |①---|
①口口① |----|
口②②口 |②---|
口口口口 |----|
最終更新:2018年10月22日 15:37