アットウィキロゴ
プレインエイジア -PHQ remix-
PHQUASE

ADVANCED

Level: 9
BPM: 182
Notes: 681

1
口口口口 |----|
口口口口 |----|
口口口口 |----|
口口口口 |----|
2
①②③口 |①-②-|
口④⑨口 |③-④⑤|
口⑤口⑧ |⑥-⑦-|
口⑥⑦口 |⑧-⑨-|
3
①口口① |①---|
②口口③ |----|
④口口⑤ |②-③-|
口口口口 |④-⑤-|
4
①④口① |①---|
口③③口 |②---|
口口口口 |③---|
②口口② |--④-|
5
①②③口 |----|
口口口口 |----|
口口口口 |--①-|
口口口口 |②-③-|
6
口口口① |①---|
口口②口 |②---|
③⑤④口 |③---|
口口口口 |④-⑤-|
7
口口口口 |----|
口①口口 |----|
口口②口 |--①-|
口③口口 |②-③-|
8
①口口① |①---|
口口口口 |②---|
口口口口
②口口②

⑤④④口
口③③口
口口口口 |③---|
口口口口 |④-⑤-|
9
口口口① |①-②-|
②⑧⑧③ |③-④-|
④⑦⑦⑤ |⑤-⑥-|
口⑥⑥口 |⑦-⑧-|
10
①③口① |①---|
口口口④ |②---|
⑤口口口 |③-④-|
②口⑥② |⑤-⑥-|
11
⑦⑦⑦⑦ |①-②-|
口①②口 |③-④-|
口③④口 |⑤-⑥-|
⑥⑤口⑥ |⑦---|
12
口口口口 |①---|
①口口② |②---|
②口口①
口口口口

口口口口
口口口口
口⑤④⑥ |③-④⑤|
口口③⑦ |-⑥-⑦|
13
④口口⑤ |-①②-|
③①②⑥ |③-④-|
口口口⑦ |⑤-⑥-|
口口口⑧ |⑦-⑧-|
14
⑥①①⑥ |--①-|
口②③口 |-②③-|
口口口口 |-④⑤-|
口④⑤口 |⑥---|
15
口①②口 |①-②-|
⑧口口③ |③-④-|
⑦口口④ |⑤-⑥-|
口⑥⑤口 |⑦-⑧-|
16
①口口① |①---|
口口口口 |②---|
口口口口
②口口②

口口③⑦
口⑤④⑥
口口口口 |③-④⑤|
口口口口 |-⑥-⑦|
17
⑥⑦⑧⑨ |--①②|
口口口口 |③④-⑤|
⑤①②口 |⑥-⑦-|
口③④口 |⑧-⑨-|
18
口口⑤口 |----①-|
⑥①⑦口 |②---③-|
口③口② |④---⑤-|
口口口④ |⑥---⑦-|
19
口口口⑤ |①---|
口口④口 |----|
①③口口 |②-③-|
②口口口 |④-⑤-|
20
口口口口 |①---|
②口口① |②---|
①口口②
口口口口

口口口口
口口口口
⑥④⑤口 |③-④⑤|
⑦③口口 |-⑥-⑦|
21
⑤口口④ |-①②-|
⑥②①③ |③-④-|
⑦口口口 |⑤-⑥-|
⑧口口口 |⑦-⑧-|
22
⑥口①⑥ |--①-|
口③②口 |-②③-|
口口口口 |-④⑤-|
口⑤④口 |⑥---|
23
口②①口 |①-②-|
③口口⑧ |③-④-|
④口口⑦ |⑤-⑥-|
口⑤⑥口 |⑦-⑧-|
24
①口口① |①---|
口口口口 |②---|
口口口口
②口口②

⑦③④口
⑥口口口
⑤口口口 |③-④-|
口口口口 |⑤⑥⑦-|
25
口口口⑤ |①-②-|
口⑥⑦④ |③④⑤-|
口②①③ |⑥-⑦-|
口⑨⑧口 |⑧-⑨-|
26
⑤①②口 |①-②-|
④⑦⑥口 |③④⑤-|
③口口口 |⑥-⑦-|
口⑧⑨口 |⑧-⑨-|
27
口②①⑤ |①-②-|
口⑥⑨④ |③④⑤-|
口⑧⑦③ |⑥-⑦-|
口口口口 |⑧-⑨-|
28
口①①口 |①---|
①口口② |②---|
①口口②
口②②口

④④④口
口③口口
口口③口 |③---|
口口口③ |--④-|
29
口口口⑦ |--①-|
①口口⑥ |②-③-|
口②口⑤ |④-⑤-|
口口③④ |⑥-⑦-|
30
口②②口 |①---|
①③⑤口 |②---|
①口口口 |③-④-|
口④⑥口 |⑤-⑥-|
31
⑦口口⑦ |①-②-|
口⑤⑥口 |③-④-|
④③②① |⑤-⑥-|
口口口口 |⑦---|
32
口①①口 |①---|
②口口① |②---|
②口口①
口②②口

口④④④
口口③口
口③口口 |③---|
③口口口 |--④-|
33
⑦口口口 |--①-|
⑥口口① |②-③-|
⑤口②口 |④-⑤-|
④③口口 |⑥-⑦-|
34
口②②口 |①---|
口⑤③① |②---|
口口口① |③-④-|
口⑥④口 |⑤-⑥-|
35
⑥口口⑥ |①-②-|
口口口口 |③-④-|
①②③④ |⑤---|
⑤口口⑤ |⑥---|
36
口①①口 |①---|
①口口② |②---|
①口口②
口②②口

口口口口
④③口口
④口③口 |③---|
④口口③ |--④-|
37
口①口口 |--①-|
口口②口 |②-③-|
口口口③ |④-⑤-|
⑦⑥⑤④ |⑥-⑦-|
38
口①①口 |①---|
⑥口⑤② |②---|
④口③② |③-④-|
口口口口 |⑤-⑥-|
39
⑦①口⑦ |①-②-|
口②⑥口 |③-④-|
口③⑤口 |⑤-⑥-|
口④口口 |⑦---|
40
口①①口 |①---|
②口口① |②---|
②口口①
口②②口

口口口口
口口③④
口③口④ |③---|
③口口④ |--④-|
41
口口①口 |--①-|
口②口口 |②-③-|
③口口口 |④-⑤-|
④⑤⑥⑦ |⑥-⑦-|
42
口①①口 |①---|
②③口④ |②---|
②⑤口⑥ |③-④-|
口口口口 |⑤-⑥-|
43
⑥口④⑥ |①-②-|
口口③口 |③-④-|
口口②口 |⑤-⑥-|
⑤口①⑤ |----|
44
口口口口 |①---|
①②口① |----|
①口口① |----|
口口口口 |--②-|
45
口口口口 |----|
口口口口 |----|
口口口口 |----|
口口口口 |----|
46
口口口口 |①---|
口口①口 |----|
口口②口 |----|
口口口口 |--②-|
47
①口口① |----|
口口口口 |①---|
口口口口 |----|
口口口口 |----|
48
口口口口 |①---|
口①口口 |----|
口③口口 |②---|
①②口口 |--③-|
49
口口口口 |①---|
口口口口 |----|
口口口口 |②---|
口口①② |----|
50
④③②① |①---|
口口①口 |②---|
口口口口 |③---|
口口口口 |④---|
51
⑦⑦⑦⑦ |①-②-|
口③④口 |③-④-|
口②⑤口 |⑤-⑥-|
口①⑥口 |⑦---|
52
⑧口口⑦ |①-②-|
口④口① |③-④-|
②口⑤口 |⑤-⑥-|
口⑥口③ |⑦-⑧-|
53
⑩⑨⑧⑦ |①-②-|
④口①口 |③-④-|
口②口⑤ |⑤-⑥-|
⑥口③口 |⑦⑧⑨⑩|
54
⑦口口⑧ |①-②-|
口①口⑥ |③-④-|
⑤口②口 |⑤-⑥-|
口③口④ |⑦-⑧-|
55
口口口口 |①-②-|
③口口⑥ |③-④-|
⑤口②口 |⑤-⑥-|
①⑦⑦④ |⑦---|
56
①①①① |①-②-|
③口口⑥ |③-④-|
口⑦②④ |⑤-⑥-|
⑤口口⑧ |⑦-⑧-|
57
⑦⑧⑨⑩ |①-②-|
口①⑥口 |③-④-|
⑤口②口 |⑤-⑥-|
口③④口 |⑦⑧⑨⑩|
58
口口口口 |①-②-|
口④⑦① |③-④-|
口⑧⑤口 |⑤-⑥-|
⑥②口③ |⑦-⑧-|
59
⑥口口⑥ |①-②-|
②口口① |--③-|
②⑤口① |--④-|
口③③④ |⑤-⑥-|
60
口口⑧口 |①-②-|
口⑥②④ |③-④-|
⑤口口① |⑤-⑥-|
口③⑦口 |⑦-⑧-|
61
⑥④口⑦ |①-②-|
口口②⑧ |③-④-|
口①⑤⑨ |⑤-⑥-|
③口口⑩ |⑦⑧⑨⑩|
62
⑧口④口 |①-②-|
口⑥②口 |③-④-|
①口⑤口 |⑤-⑥-|
⑦③口口 |⑦-⑧-|
63
⑦④口⑥ |①-②-|
⑧口口② |③-④-|
⑨①口口 |⑤-⑥-|
⑩⑤③口 |⑦⑧⑨⑩|
64
口口口口 |①---|
口口口口 |----|
口口①①
口口口口

口②口口
②口口口
口口口③ |--②-|
口口③口 |--③-|
65
口口①口 |----|
口口口① |----|
②口口口 |①---|
口②口口 |②---|
66
②①口口 |----|
①④③口 |①--②|
口③②口 |--③-|
口口口④ |-④--|
67
④口口⑤ |①---|
口口口口 |----|
口②③① |②-③-|
口口①口 |④-⑤-|
68
④①①④ |①---|
②③口① |②---|
②口③① |③---|
口②②③ |--④-|
69
⑥口口⑥ |--①-|
①口口② |②-③-|
口⑤⑤口 |④---|
③口口④ |⑤-⑥-|
70
⑥口口⑥ |--①-|
②口口① |②-③-|
口⑤⑤口 |④---|
④口口③ |⑤-⑥-|
71
⑥⑥⑥⑥ |--①-|
①口口② |②-③-|
口口口口 |④-⑤-|
③⑤⑤④ |⑥---|
72
④④④口 |①---|
口②②③ |②---|
②①①③ |③---|
②③③口 |--④-|
73
口口口⑦ |--①-|
①口口⑥ |②-③-|
口②口⑤ |④-⑤-|
口口③④ |⑥-⑦-|
74
口②②口 |①---|
①④③口 |②---|
①⑥⑤口 |③-④-|
口口口口 |⑤-⑥-|
75
⑥口口⑥ |①-②-|
口口口口 |③-④-|
②口口① |⑤---|
⑤④③⑤ |⑥---|
76
口①①口 |①---|
②口口① |②---|
②口口①
口②②口

⑥⑥⑥口
口③⑤口
口口③口 |③-④-|
④口口③ |⑤-⑥-|
77
口口口⑦ |--①-|
①口口⑥ |②-③-|
口②口⑤ |④-⑤-|
口口③④ |⑥-⑦-|
78
口②②口 |①---|
①⑤③口 |②---|
①口口口 |③-④-|
口⑥④口 |⑤-⑥-|
79
⑦口口⑦ |①-②-|
口⑥⑤口 |③-④-|
①②③④ |⑤-⑥-|
口口口口 |⑦---|
80
口①①口 |①---|
①口口② |②---|
①口口②
口②②口

口⑥⑥⑥
口⑤③口
口③口口 |③-④-|
③口口④ |⑤-⑥-|
81
⑦口口口 |--①-|
⑥口口① |②-③-|
⑤口②口 |④-⑤-|
④③口口 |⑥-⑦-|
82
口②②口 |①---|
口⑤③① |②---|
口口口① |③-④-|
口⑥④口 |⑤-⑥-|
83
⑥⑥⑥⑥ |①-②-|
口口口口 |③-④-|
④③②① |⑤-⑥-|
⑤口口⑤ |----|
84
口口口口 |①-②-|
⑧③④⑦ |③-④-|
口②⑤口 |⑤-⑥-|
⑦①⑥⑧ |⑦-⑧-|
85
口①①口 |①---|
口口口口 |----|
口口口口 |----|
口口口口 |----|
最終更新:2019年10月22日 03:05