アットウィキロゴ
竹取飛翔 ~ Lunatic Princess (Ryu☆Remix)
Ryu☆

ADVANCED

Level: 6
BPM: 171
Notes: 441

1
口口口口 |----|
口口口口 |----|
口口口口 |----|
口口口口 |----|
2
口①②口 |----|
口口口口 |----|
口口口口 |①---|
口口口口 |②---|
3
口口口口 |①---|
①――< |----|
口口口口
口口口口

口口口口
②口口口
――② |②---|
口口口口 |----|
4
口口口口 |①---|
⑤②③口 |--②-|
④口口① |③---|
口①①口 |④-⑤-|
5
①⑦口④ |①---|
口口⑥③ |②-③-|
口⑤口② |④-⑤-|
口口口口 |⑥-⑦-|
6
口口口口 |①---|
①――<
口口口口
口口口口

口口口口
②口口口 |②---|
――②
口口口口

口口口口
口口口口
口口口③ |③---|
③――<

口口口口
口口口口
口⑤④口
④口口口 |④-⑤-|
7
口口口口 |①---|
①――< |----|
口口口口
口口口口

口口口口
②口口口
――② |②---|
口口口口 |----|
8
口口口口 |①---|
⑤②③口 |--②-|
④口口① |③---|
口①①口 |④-⑤-|
9
①⑦口④ |①---|
口口⑥③ |②-③-|
口⑤口② |④-⑤-|
口口口口 |⑥-⑦-|
10
口口口口 |①---|
②――< |----|
口口口口 |②---|
口①①口

口口口口
③口口③
口口口口
口口口口 |③---|
11
①口口② |①---|
口口口口 |②---|
口口口口 |③---|
③口口④ |④---|
12
①口口② |①---|
口口口口 |②---|
口口口口 |③---|
③口口④ |④---|
13
①口口② |①---|
口口口口 |②---|
口口口口 |③---|
③口口④ |④---|
14
①口口② |①---|
口口口口 |②---|
口口口口 |③---|
③口口④ |④---|
15
①②④③ |①-②-|
口口口口 |③-④-|
口口口口 |⑤-⑥-|
⑤⑥⑧⑦ |⑦-⑧-|
16
①②④③ |①-②-|
口口口口 |③-④-|
口口口口 |⑤-⑥-|
⑤⑥⑧⑦ |⑦-⑧-|
17
①②④③ |①-②-|
口口口口 |③-④-|
口口口口 |⑤-⑥-|
⑤⑥⑧⑦ |⑦-⑧-|
18
口②②口 |①---|
口①①口 |----|
口④③口 |②---|
口口口口 |③-④-|
19
口口口口 |①---|
①――< |----|
口口口口
口口口口

口口口口
②口口口
――② |②---|
口口口口 |----|
20
口口口口 |①---|
⑤②③口 |--②-|
④口口① |③---|
口①①口 |④-⑤-|
21
①⑦口④ |①---|
口口⑥③ |②-③-|
口⑤口② |④-⑤-|
口口口口 |⑥-⑦-|
22
口口口口 |①---|
①――<
口口口口
口口口口

口口口口
②口口口 |②---|
――②
口口口口

口口口口
口口口口
口口口③ |③---|
③――<

口口口口
口口口口
口⑤④口
④口口口 |④-⑤-|
23
口口口口 |①---|
①――< |----|
口口口口
口口口口

口口口口
②口口口
――② |②---|
口口口口 |----|
24
口口口口 |①---|
⑤②③口 |--②-|
④口口① |③---|
口①①口 |④-⑤-|
25
①⑦口④ |①---|
口口⑥③ |②-③-|
口⑤口② |④-⑤-|
口口口口 |⑥-⑦-|
26
口口口口 |①---|
口口口口 |----|
②――< |②---|
口①①口

口口口口
――③
③口口口
口口口口 |③---|
27
①――< |①---|
口口口① |----|
口口口口 |----|
口口口口 |----|
28
口口口口 |①---|
②――< |----|
口口口口 |②---|
口①①口

③口口口
③口口③
口口口口
口口口口 |③---|
29
口口口口 |①-②-|
口口口口 |③-④-|
⑤⑥⑧⑦ |⑤-⑥-|
①②④③ |⑦-⑧-|
30
①②④③ |①-②-|
⑤⑥⑧⑦ |③-④-|
口口口口 |⑤-⑥-|
口口口口 |⑦-⑧-|
31
口口口口 |①-②-|
⑤⑥⑧⑦ |③-④-|
口口口口 |⑤-⑥-|
①②④③ |⑦-⑧-|
32
⑤⑥⑧⑦ |①-②-|
口口口口 |③-④-|
①②④③ |⑤-⑥-|
口口口口 |⑦-⑧-|
33
口口口口 |①-②-|
口口口口 |③-④-|
⑤⑥⑧⑦ |⑤-⑥-|
①②④③ |⑦-⑧-|
34
⑤⑥⑧⑦ |①-②-|
①②④③ |③-④-|
口口口口 |⑤-⑥-|
口口口口 |⑦-⑧-|
35
口口口口 |①---|
口③③⑤ |②---|
④②②口 |③---|
口①①口 |④-⑤-|
36
①口口口 |①---|
②――< |----|
口口口口 |②---|
口口口口

口口口口
③口口③
口口口口
口口口口 |③---|
37
①口口② |①---|
③口口④ |②---|
口口口口 |③---|
口口口口 |④---|
38
口⑦口口 |①-②-|
⑥⑤④口 |③-④-|
口①②③ |⑤-⑥-|
口口口口 |⑦---|
39
②口口① |①---|
口口口口 |②---|
口⑤口口 |③---|
④口口③ |④-⑤-|
40
⑥④口⑤ |①-②-|
⑥口③⑤ |③-④-|
口口口② |⑤---|
口口①口 |⑥---|
41
口口口口 |①---|
口口口口 |②---|
③口口④ |③---|
①口口② |④---|
42
口①④口 |①-②-|
口②⑤口 |③-④-|
口③⑥口 |⑤-⑥-|
口口⑦口 |⑦---|
43
②口口④ |①---|
口口⑤口 |②---|
口口口口 |③---|
①口口③ |④-⑤-|
44
口口口口 |①---|
②――< |----|
口①口口 |②---|
口口口口

口口口口
③口口③
口口口口
口口口口 |③---|
45
①口口② |①---|
口口口口 |②---|
口口口口 |③---|
③口口④ |④---|
46
口⑤⑥⑦ |①-②-|
口③④口 |③-④-|
口①②口 |⑤-⑥-|
口口口口 |⑦---|
47
口口口口 |①---|
口②②口 |----|
口口口口 |②---|
口①①口 |----|
48
②口口② |①---|
口口口口 |----|
①口口① |②---|
口口口口 |----|
49
口口口口 |①---|
①口口② |②---|
③口口④ |③---|
口口口口 |④---|
50
③④口③ |①--②|
口②②⑤ |--③-|
口⑥口口 |④-⑤-|
口①①口 |⑥---|
51
口口口口 |①---|
口①①口 |②---|
②口口②
口口口口

口口口口
口口⑤口
口④口口 |③---|
③口口③ |④-⑤-|
52
口①口口 |①---|
②――< |----|
口口口口 |②---|
口口口口

口口口口
③口口③
口口口口
口口口口 |③---|
53
口口口口 |①---|
口口口口 |②---|
①②③④ |③---|
口口口口 |④---|
54
口口口口 |①---|
口口口口 |②---|
口口口口 |③---|
④③②① |④---|
55
口口口口 |①---|
口口口口 |②---|
①②③④ |③---|
口口口口 |④---|
56
口口口口 |①---|
口口口口 |②---|
口口口口 |③---|
④③②① |④---|
57
口口口口 |①---|
口口口口 |②---|
①②③④ |③---|
口口口口 |④---|
58
口口口口 |①---|
口口口口 |②---|
口口口口 |③---|
④③②① |④---|
59
口口口口 |①---|
口口口口 |②---|
①②③④ |③---|
口口口口 |④---|
60
③口口③ |①---|
口口口口 |②---|
口②②口 |③---|
口①①口 |----|
61
口①②③ |①---|
口口②③ |②---|
口⑤④③ |③---|
口口口口 |④-⑤-|
62
口口口口 |①---|
①――< |----|
口口口口
口口口口

口口口口
②口口口
――② |②---|
口口口口 |----|
63
口口口口 |①---|
⑤②③口 |--②-|
④口口① |③---|
口①①口 |④-⑤-|
64
①⑦口④ |①---|
口口⑥③ |②-③-|
口⑤口② |④-⑤-|
口口口口 |⑥-⑦-|
65
口口口口 |①---|
①――<
口口口口
口口口口

口口口口
②口口口 |②---|
――②
口口口口

口口口口
口口口口
口口口③ |③---|
③――<

口口口口
口口口口
口⑤④口
④口口口 |④-⑤-|
66
口口口口 |①---|
①――< |----|
口口口口
口口口口

口口口口
②口口口
――② |②---|
口口口口 |----|
67
口口口口 |①---|
⑤②③口 |--②-|
④口口① |③---|
口①①口 |④-⑤-|
68
①⑦口④ |①---|
口口⑥③ |②-③-|
口⑤口② |④-⑤-|
口口口口 |⑥-⑦-|
69
口口口口 |①---|
口口口口 |----|
口③②口 |----|
口①①口 |②-③-|
70
口口口口 |①---|
①――< |----|
口口口口
口口口口

口口口口
②口口口
――② |②---|
口口口口 |----|
71
口口口口 |①---|
⑤②③口 |--②-|
④口口① |③---|
口①①口 |④-⑤-|
72
①⑦口④ |①---|
口口⑥③ |②-③-|
口⑤口② |④-⑤-|
口口口口 |⑥-⑦-|
73
口口口口 |①---|
①――<
口口口口
口口口口

口口口口
②口口口 |②---|
――②
口口口口

口口口口
口口口口
口口口③ |③---|
③――<

口口口口
口口口口
口⑤④口
④口口口 |④-⑤-|
74
口口口口 |①---|
①――< |----|
口口口口
口口口口

口口口口
②口口口
――② |②---|
口口口口 |----|
75
口口口口 |①---|
⑤②③口 |--②-|
④口口① |③---|
口①①口 |④-⑤-|
76
①⑦口④ |①---|
口口⑥③ |②-③-|
口⑤口② |④-⑤-|
口口口口 |⑥-⑦-|
77
口口口口 |①---|
口口口口 |----|
②――< |②---|
口①①口

口口口口
――③
③口口口
口口口口 |③---|
78
①――< |①---|
口口口① |----|
口口口口 |----|
口口口口 |----|
79
口口口口 |①---|
②――< |----|
口口口口 |②---|
口①①口

③口口口
③口口③
口口口口
口口口口 |③---|
最終更新:2019年10月22日 03:10