アットウィキロゴ
EBONY & IVORY
OSTER project

ADVANCED

Level: 9
BPM: 170
Notes: 640

1
口口口口 |----|
口口口口 |----|
口口口口 |----|
口口口口 |----|
2
口⑥①口 |①-②-|
②口口⑤ |③-④-|
口④口⑦ |⑤-⑥-|
⑧口口③ |⑦-⑧-|
3
口④口口 |①-②-|
②⑧①口 |③-④-|
口口⑤⑦ |⑤-⑥-|
口⑥③口 |⑦-⑧-|
4
③③①① |①-②-|
口口②② |--③-|
口口口口
口口③③

口口口口
口口⑥口
口⑤④口 |--④-|
口口口口 |⑤-⑥-|
5
口③③口 |①---|
口①口口 |----|
口④④口 |②-③-|
②口口② |④---|
6
②口口① |①-②-|
④口口③ |③-④-|
口口口口
口口口口

口口⑧⑧
口⑥口口
口口⑦⑤ |⑤-⑥⑦|
口口口口 |--⑧-|
7
口口口口 |①-②-|
口口口口 |③-④-|
③口口④
①口口②

口口口口
⑤⑦口口
口口⑥口 |⑤-⑥⑦|
⑧⑧口口 |--⑧-|
8
②口口① |①-②-|
④口口③ |③-④-|
口口口口
口口口口

口口⑧⑧
口⑥口口
口口⑦⑤ |⑤-⑥⑦|
口口口口 |--⑧-|
9
⑧⑧⑧⑧ |①-②-|
⑤⑦口口 |③-④-|
③口⑥④ |⑤-⑥⑦|
①口口② |⑧---|
10
口⑤⑥口 |--①-|
口⑦①① |②-③-|
口口口口 |④-⑤-|
②③④口 |⑥-⑦-|
11
口口口口 |①-②-|
口⑥⑥① |③-④-|
口⑤口② |⑤-⑥-|
口③④口 |----|
12
①①口口 |--①-|
⑦口口口 |②-③-|
⑥④③② |④-⑤-|
⑤口口口 |⑥-⑦-|
13
口②①∨ |①②③④|
口④③| |⑤⑥⑦⑧|
口⑥⑤⑨ |⑨-|
口⑧⑦口

口口口口
⑩口口口
口口口⑩ |-⑩|
口口口口 |----|
14
⑤口口口 |--①-|
口⑥①① |②-③-|
口口⑦口 |④-⑤-|
②③④口 |⑥-⑦-|
15
口口口⑥ |①-②-|
③⑦⑤② |③-④-|
口④口① |⑤-⑥-|
口口⑧口 |⑦-⑧-|
16
③口②口 |①-②-|
口口口② |--③-|
口口口口
①口口口

口口口口
口口口口
⑤⑤④④ |④-⑤-|
⑦⑦⑥⑥ |⑥-⑦-|
17
④口②口 |①-②-|
口③口① |③-④-|
口⑦口⑤ |⑤-⑥-|
⑧口⑥口 |⑦-⑧-|
18
口③②② |①-②-|
④①①⑧ |③-④-|
口⑤口⑦ |⑤-⑥-|
口口口⑥ |⑦-⑧-|
19
⑦①口⑦ |①-②-|
口口②口 |③④⑤⑥|
口③④口 |--⑦-|
口⑤⑥口 |----|
20
⑦⑦②口 |--①-|
口③⑥⑥ |②-③-|
①①④口 |④-⑤-|
⑤⑤口口 |⑥-⑦-|
21
口口⑦⑤ |①②③④|
②⑥口口 |⑤⑥⑦⑧|
口④口①
⑧口③口

口口口口
口口口⑨
口口口| |⑨-|
口口口∧

⑩口口口
口口口⑩
口口口口 |-⑩|
口口口口 |----|
22
口口口口 |①-②-|
③④口口 |③-④-|
口①①口
口口②②

口口口口
口口⑤口
口⑧⑦口 |⑤-⑥-|
口⑥口口 |⑦-⑧-|
23
③④⑤口 |①-②-|
口⑧口② |③-④-|
口⑦⑥① |⑤-⑥-|
口口口口 |⑦-⑧-|
24
口②口③ |①-②-|
②口口口 |--③-|
口口口口
口口口①

口口口口
口口口口
④④⑤⑤ |④-⑤-|
⑥⑥⑦⑦ |⑥-⑦-|
25
②口⑥口 |①---|
③①①⑥ |----|
④口口口 |②③④⑤|
⑤口口口 |⑥---|
26
⑨④口② |①-②-|
口⑥口口 |③-④-|
口口⑦口 |⑤-⑥⑦|
⑧③⑤① |⑧-⑨-|
27
⑨④口② |①-②-|
口⑥口口 |③-④-|
口口⑦口 |⑤-⑥⑦|
⑧③⑤① |⑧-⑨-|
28
⑨④口② |①-②-|
口⑥口口 |③-④-|
口口⑦口 |⑤-⑥⑦|
⑧③⑤① |⑧-⑨-|
29
⑨④口② |①-②-|
口⑥口口 |③-④-|
口口⑦口 |⑤-⑥⑦|
⑧③⑤① |⑧-⑨-|
30
⑨④⑥② |①-②-|
口口⑦口 |③-④-|
口口口口 |⑤-⑥⑦|
⑧③⑤① |⑧-⑨-|
31
⑨④⑥② |①-②-|
口口⑦口 |③-④-|
口口口口 |⑤-⑥⑦|
⑧③⑤① |⑧-⑨-|
32
口口口口 |①---|
口口口口 |----|
①①①① |②---|
②②②② |----|
33
②④①③ |①-②-|
④②③① |③-④-|
⑧⑥⑦⑤ |⑤-⑥-|
⑥⑧⑤⑦ |⑦-⑧-|
34
――① |①---|
口口口口
口口口口
口口口口

②口口②
口③④口 |---②|
口口⑤口 |③-④-|
口口⑥口 |⑤-⑥-|
35
⑤①②⑤ |①-②-|
①③④② |③-④-|
③口口④ |⑤---|
⑥口口⑥ |⑥---|
36
口口口口 |①---|
①――<
口口口口
口口口口

口口口③
②口④口 |--②③|
口⑤⑤口 |④---|
口口口口 |⑤---|
37
⑥⑥⑦口 |①②③④|
口⑧⑬⑤ |⑤-⑥-|
④⑫⑨③ |⑦⑧⑨⑩|
②⑩⑪① |⑪⑫⑬-|
38
④⑧⑥② |①-②-|
④⑧⑥② |③-④-|
口口口口 |⑤-⑥-|
③⑦⑤① |⑦-⑧-|
39
④⑧⑥② |①-②-|
④⑧⑥② |③-④-|
口口口口 |⑤-⑥-|
③⑦⑤① |⑦-⑧-|
40
⑧口口⑤ |①②③④|
④口口① |⑤⑥⑦⑧|
②⑥口口
口口⑦③

口口⑬口
⑯⑫⑨口
口口⑮⑪ |⑨⑩⑪⑫|
⑩⑭口口 |⑬⑭⑮⑯|
41
⑥⑯⑪⑤ |①②③④|
⑫⑩⑦① |⑤⑥⑦⑧|
②④⑮⑬ |⑨⑩⑪⑫|
⑧⑭⑨③ |⑬⑭⑮⑯|
42
口口口① |①---|
口口口① |--②-|
②<口口
口口口口

口口∨口
口口③口
③口口口 |----|
口口口口 |③---|
43
①口口口 |--①-|
∧口①口 |----|
口口口口
口口口口

②口口口
口口口口
口口口口 |②---|
口口②<

口口口口
口③口口
口∧口口
口口③口 |--③-|
44
口口①< |----|
口①口口 |①---|
口口口口
口口口口

口②②口
口口③口
口口口口 |--②-|
口口口口 |-③--|
45
口口口口 |①---|
口口口口 |--②-|
口①口口 |----|
②口口② |----|
46
口口口口 |----|
口口口∨ |----|
口口口① |----|
口口口口 |--①-|
47
口①口口 |----|
口∧口口 |①---|
口口口①
口口口口

口②口口
口口口口
口口口口 |--②-|
口口②< |----|
48
口口口口 |①---|
口口口口
①<口口
口口①口

口口口口
口口②< |--②-|
②口口口
口口口口

口口口口
口口③口
口口④口 |----|
口③口口 |③--④|
49
口口口口 |--①-|
口①口口 |----|
口口口② |②---|
口口口∧

口口口口
口口口口
③口口③
口口口口 |--③-|
50
口口口口 |----|
口口口口 |----|
口口口口 |----|
口口口口 |----|
51
口⑧⑦口 |①②③④|
口⑥⑤口 |----|
④口口③ |⑤⑥⑦⑧|
②口口① |----|
52
⑥口口⑤ |①②③④|
④口口① |⑤⑥⑦⑧|
⑧②口口
口口⑦③

口⑩口口
⑯⑭⑨口
口口⑬⑪ |⑨⑩⑪⑫|
⑫口口⑮ |⑬⑭⑮⑯|
53
③口①② |①---|
口口口① |②-③-④-|
口口口口 |⑤---|
⑥⑤④⑥ |⑥---|
54
⑤①①口 |①---|
①⑧④① |②-③-④-|
⑤③⑦口 |⑤---|
口⑥②口 |⑥-⑦-⑧-|
55
口口口① |①---|
口口口口 |----|
口口口① |②---|
口②②口 |----|
56
⑨④口② |①-②-|
口⑥口口 |③-④-|
口口⑦口 |⑤-⑥⑦|
⑧③⑤① |⑧-⑨-|
57
⑨④口② |①-②-|
口⑥口口 |③-④-|
口口⑦口 |⑤-⑥⑦|
⑧③⑤① |⑧-⑨-|
58
⑨④口② |①-②-|
口⑥口口 |③-④-|
口口⑦口 |⑤-⑥⑦|
⑧③⑤① |⑧-⑨-|
59
⑨④口② |①-②-|
口⑥口口 |③-④-|
口口⑦口 |⑤-⑥⑦|
⑧③⑤① |⑧-⑨-|
60
⑧④⑥② |①-②-|
④⑧②⑥ |③-④-|
口口口口 |⑤-⑥-|
⑦③⑤① |⑦-⑧-|
61
⑧④⑥② |①-②-|
④⑧②⑥ |③-④-|
口口口口 |⑤-⑥-|
⑦③⑤① |⑦-⑧-|
62
口口⑦③ |①②③④|
④口口口 |⑤⑥⑦⑧|
⑧⑥①口
口②口⑤

口⑩口⑮
口⑭口⑪
口口口⑬ |⑨⑩⑪⑫|
⑫⑯⑨口 |⑬⑭⑮⑯|
63
⑥口口口 |①②③④|
②口⑤口 |⑤⑥⑦⑧|
⑧④①口
口口⑦③

口⑩口口
口⑭口⑨
口⑯⑬⑪ |⑨⑩⑪⑫|
⑫口口⑮ |⑬⑭⑮⑯|
64
⑦口①① |①-②-|
④口口⑥ |③-④-|
口口口⑤ |⑤-⑥-|
⑧②③口 |⑦-⑧-|
65
口口①① |①-②-|
②③⑧口 |③-④-|
口⑦④口 |⑤-⑥-|
口⑤⑥口 |⑦-⑧-|
66
②②口口 |①-②-|
口⑥⑦③ |③-④-|
口⑧④口 |⑤-⑥-|
①⑤口① |⑦-⑧-|
67
①①口口 |①-②-|
④口口⑦ |③-④-|
口⑧③② |⑤-⑥-|
口⑥⑤口 |⑦-⑧-|
68
②⑭⑬① |①②③④|
⑩⑥⑤⑨ |⑤⑥⑦⑧|
④⑯⑮③ |⑨⑩⑪⑫|
⑫⑧⑦⑪ |⑬⑭⑮⑯|
69
②口②① |①---|
口②口② |----|
口口口口 |②---|
口口口口 |----|
70
②口口③ |①---|
口口口口 |----|
口口口口 |②---|
③①①② |③---|
71
口②②口 |①---|
②①①② |②---|
口①①口 |----|
口口口口 |----|
最終更新:2019年10月22日 03:17