アットウィキロゴ
EBONY & IVORY
OSTER project

EXTREME

Level: 10.5
BPM: 170
Notes(hold): 752(14)

1
口口口口 |----|
口口口口 |----|
口口口口 |----|
口口口口 |----|
2
⑬⑨①⑤ |①②③④|
⑭②⑩⑥ |⑤⑥⑦⑧|
⑮⑪③⑦ |⑨⑩⑪⑫|
⑯④⑫⑧ |⑬⑭⑮⑯|
3
⑬⑨①⑤ |①②③④|
⑭②⑩⑥ |⑤⑥⑦⑧|
⑮⑪③⑦ |⑨⑩⑪⑫|
⑯④⑫⑧ |⑬⑭⑮⑯|
4
口口①① |①-②-|
口③⑥③ |--③-|
口⑤②② |--④-|
口口口④ |⑤-⑥-|
5
①①①① |①-②③|
⑥⑥⑦⑦ |④-⑤-|
⑧⑧口⑤ |⑥-⑦-|
②③④口 |⑧---|
6
②④口口 |①-②-|
口口⑨⑥ |③-④-|
口口⑦⑧ |⑤-⑥⑦|
①③⑤口 |-⑧⑨-|
7
口口④② |①-②-|
⑥⑨口口 |③-④-|
⑧⑦口口 |⑤-⑥⑦|
口⑤③① |-⑧⑨-|
8
②④口口 |①-②-|
口口⑨⑥ |③-④-|
口口⑦⑧ |⑤-⑥⑦|
①③⑤口 |-⑧⑨-|
9
⑧⑧④② |①-②-|
⑥⑦口口 |③-④-|
⑧⑧口口 |⑤-⑥⑦|
口⑤③① |⑧---|
10
⑩⑩口口 |①-②-|
⑤⑥④③ |③④⑤⑥|
口⑦⑨口 |-⑦-⑧|
②⑧口① |⑨-⑩-|
11
口口口口 |①-②-|
口口口① |③④⑤⑥|
④⑥口②
口口⑤③

口⑧⑪口
⑦⑩⑨⑫
口口口口 |-⑦⑧⑨|
口口口口 |⑩⑪⑫-|
12
⑥口口口 |--①-|
口⑧口口 |②③④⑤|
④⑤③② |--⑥-|
①口口⑦ |⑦-⑧-|
13
口口①⑤ |①②③④|
口口⑦③ |⑤⑥⑦⑧|
④⑧口口
⑥②口口

⑨――<
口口口口
口口口口 |⑨-|
>――⑨

⑩⑩口口
⑩口口口
口口口⑩ |-⑩|
口口⑩⑩ |----|
14
⑨⑨②① |--①-|
口⑧③口 |②③④⑤|
口④⑦口 |-⑥-⑦|
①⑤⑥口 |⑧-⑨-|
15
口口口⑥ |①-②-|
口口⑤① |③④⑤⑥|
口④口②
③口口口

口⑨⑩口
口⑦口口
⑨口⑧⑩ |-⑦⑧-|
口口口口 |⑨-⑩-|
16
⑥口口口 |①②③④|
口口④⑦ |-⑤⑥⑦|
口③口口
口①②⑤

口⑭口⑪
口⑩口口
⑫口⑨口 |⑧⑨⑩⑪|
⑧口⑬口 |⑫⑬⑭-|
17
口口口口 |①-②-|
①⑦③⑤ |③-④-|
⑧②⑥④ |⑤-⑥-|
口口口口 |⑦-⑧-|
18
②①①① |①-②-|
⑤口⑥口 |③④⑤⑥|
口③口④
口口口口

口⑨口口
口⑦口口
口口口口 |-⑦-⑧|
⑩⑩⑧口 |⑨-⑩-|
19
口⑪⑦⑨ |①-②-|
⑥⑤④③ |③④⑤⑥|
口②①② |-⑦⑧⑨|
⑫⑧⑩① |⑩⑪⑫-|
20
①⑧口口 |--①-|
⑧⑦③② |②③④⑤|
⑤④⑦⑥ |--⑥-|
口口⑥① |⑦-⑧-|
21
口口①⑤ |①②③④|
口口⑦③ |⑤⑥⑦⑧|
④⑧口口
⑥②口口

⑨――<
口口口口
口口口口 |⑨-|
>――⑨

⑩⑩口口
⑩⑪口口
口口口⑩ |-⑩|
口口⑩⑩ |--⑪-|
22
⑩口①① |①-②-|
口⑨⑥口 |③④⑤⑥|
⑤④③⑧ |-⑦-⑧|
②⑦口口 |⑨-⑩-|
23
口⑥①口 |①-②-|
⑥口⑤① |③④⑤⑥|
口④②口
口口③②

⑩口⑨口
口口口口
⑧口口⑦ |-⑦⑧-|
口⑨口⑩ |⑨-⑩-|
24
口⑦口口 |①②③④|
口③⑤④ |-⑤⑥⑦|
口⑥②口
①口口口

⑪口⑬⑨
口口口口
口口口口 |⑧⑨⑩⑪|
⑫⑧⑭⑩ |⑫⑬⑭-|
25
口口口口 |①---|
口①口口 |----|
口口①口
口口口口

②口口②
③⑥⑥③
④口口④ |②③④⑤|
⑤口口⑤ |⑥---|
26
⑨④②⑥ |①-②-|
口口口⑥ |③-④-|
口口口⑦ |⑤-⑥⑦|
⑧③①⑤ |⑧-⑨-|
27
⑨④②⑥ |①-②-|
口口口⑥ |③-④-|
口口口⑦ |⑤-⑥⑦|
⑧③①⑤ |⑧-⑨-|
28
⑨④②⑥ |①-②-|
口口口⑥ |③-④-|
口口口⑦ |⑤-⑥⑦|
⑧③①⑤ |⑧-⑨-|
29
口④②⑥ |①-②-|
口⑧⑧⑥ |③-④-|
口口口⑦ |⑤-⑥⑦|
口③①⑤ |⑧---|
30
②⑧①⑦ |①②③④|
⑯⑮⑭⑬ |⑤⑥⑦⑧|
④⑫③⑪ |⑨⑩⑪⑫|
⑩⑥⑨⑤ |⑬⑭⑮⑯|
31
②⑥①⑤ |①②③④|
⑯⑮⑭⑬ |⑤⑥⑦⑧|
⑫⑧⑪⑦ |⑨⑩⑪⑫|
⑩④⑨③ |⑬⑭⑮⑯|
32
口口①① |①---|
口口口口 |----|
口口口口 |②---|
②②口口 |----|
33
③口⑦① |①-②-|
口④②⑦ |③-④-|
⑥⑧口⑤ |⑤-⑥-|
口⑩⑨口 |⑦⑧⑨⑩|
34
>――① |①---|
口口口口
口口口口
口口口口

④⑦⑦②
口③④⑤ |--②③|
⑥⑤口口 |④-⑤-|
口口⑥口 |⑥-⑦-|
35
④口口口 |①-②-|
口③④口 |③-④-|
口口①②
口②口口

口口口口
⑤口口⑤
口⑥⑥口 |⑤---|
口口口口 |⑥---|
36
>――① |①---|
口口口口
口口口口
口口口口

④④口②
口口③口 |--②③|
口口口口 |④---|
口⑤⑤口 |⑤---|
37
口⑥①⑤ |①②③④|
⑥②⑤口 |⑤-⑥-|
口口口口
④口口③

⑩口⑪口
口⑫口⑦
口口口⑬ |⑦⑧⑨⑩|
口⑧⑨口 |⑪⑫⑬-|
38
⑨③⑪⑧ |①②③-|
⑬⑩②⑫ |④⑤⑥⑦|
⑦①⑤口 |⑧-⑨⑩|
口⑥口④ |⑪⑫⑬-|
39
口口口⑥ |①②③④|
口口⑦口 |⑤-⑥⑦|
④口②⑤
口③口①

口口⑪口
⑫口口口
口⑧⑬口 |⑧⑨⑩-|
⑨口⑩口 |⑪⑫⑬-|
40
口①口口 |①②③④|
口②口③ |⑤⑥⑦⑧|
⑤⑦口④
⑥⑧口口

⑨⑬⑪口
⑩⑭⑫口
口口⑮口 |⑨⑩⑪⑫|
口口⑯口 |⑬⑭⑮⑯|
41
口口⑦口 |①②③④|
口口⑧③ |⑤⑥⑦⑧|
①⑤口④
②⑥口口

⑨⑬口⑮
⑩⑭口⑯
口口⑪口 |⑨⑩⑪⑫|
口口⑫口 |⑬⑭⑮⑯|
42
口口口口 |①---|
口口口口
①――<
口口口口

口口②口
口③口③ |--②-|
口口②口 |----|
口口口口 |③---|
43
口②③② |--①-|
口口口③ |----|
口口口口 |②---|
口①―< |--③-|
44
口口口② |----|
口∨口口 |①---|
口①②口 |--②-|
口口口口 |----|
45
口口①口 |①---|
口口口①
口口口口
口口口口

口口口∨
口口③| |--②-|
口口口② |----|
口口口口 |③---|
46
口口口口 |--①-|
口口口口 |----|
①①①①
口①口口

口口口口
>――②
③口③口 |②---|
口口口口 |--③-|
47
口①口口 |----|
口口口口 |①---|
口①口口 |--②-|
>―②口 |----|
48
①①口口 |①---|
②口∨口 |--②-|
口②③口 |----|
口口口口 |③---|
49
①②口口 |--①-|
②口口口 |----|
③①口口 |②---|
∧口口口 |--③-|
50
口口口口 |----|
口口口② |①---|
②②②口 |--②-|
口①②口 |----|
51
口②口④ |①②③④|
①口③口 |----|
⑧口⑥口 |⑤⑥⑦⑧|
口⑦口⑤ |----|
52
⑫③②⑬ |①②③④|
④⑪⑭① |⑤⑥⑦⑧|
⑧⑮⑩⑤ |⑨⑩⑪⑫|
⑯⑦⑥⑨ |⑬⑭⑮⑯|
53
口②①口 |①---|
②⑥⑥① |②-③-④-|
④口⑤③ |⑤---|
口④③⑤ |⑥---|
54
⑤①①口 |①---|
④口口⑧ |②-③-④-|
③口口⑦ |⑤---|
②口口⑥ |⑥-⑦-⑧-|
55
口口口① |①---|
口口②口 |----|
口口口口 |②---|
口口口口 |----|
56
⑨④②⑥ |①-②-|
口口口⑥ |③-④-|
口口口⑦ |⑤-⑥⑦|
⑧③①⑤ |⑧-⑨-|
57
⑨④②⑥ |①-②-|
口口口⑥ |③-④-|
口口口⑦ |⑤-⑥⑦|
⑧③①⑤ |⑧-⑨-|
58
⑨④②⑥ |①-②-|
口口口⑥ |③-④-|
口口口⑦ |⑤-⑥⑦|
⑧③①⑤ |⑧-⑨-|
59
口④②⑧ |①-②-|
口⑥⑦口 |③-④-|
口⑩⑨口 |⑤⑥⑦-|
口③①⑤ |⑧-⑨⑩|
60
⑥④②⑧ |①-②-|
④⑥⑧② |③-④-|
口口口口 |⑤-⑥-|
⑤③①⑦ |⑦-⑧-|
61
口④②口 |①-②-|
④口口② |③-④-|
⑧口口⑦ |⑤-⑥-|
⑥③①⑤ |⑦-⑧-|
62
⑫③②① |①②③④|
④⑪⑩⑨ |⑤⑥⑦⑧|
⑯⑦⑭⑬ |⑨⑩⑪⑫|
⑧⑮⑥⑤ |⑬⑭⑮⑯|
63
口③②① |①②③④|
④口口口 |⑤⑥⑦⑧|
口⑦口口
⑧口⑥⑤

⑫口口⑬
口⑪⑭口
口口⑩⑨ |⑨⑩⑪⑫|
口⑮口口 |⑬⑭⑮-|
64
口②①口 |①-②-|
②口口① |③④⑤⑥|
③④⑤⑥ |-⑦-⑧|
⑩⑧⑨⑦ |⑨-⑩-|
65
①⑫⑪口 |①-②③|
⑤④③② |④⑤-⑥|
⑦⑧⑨⑩ |⑦⑧⑨⑩|
口口口⑥ |⑪-⑫-|
66
口口口② |①-②-|
③④⑤⑥ |③④⑤⑥|
口⑨⑧口 |-⑦-⑧|
⑦①①⑩ |⑨-⑩-|
67
①①①① |①---|
口②②口 |----|
口口口口 |②---|
口②②口 |----|
68
⑫①⑬⑤ |①②③④|
②⑪⑥⑭ |⑤⑥⑦⑧|
⑮③⑩⑦ |⑨⑩⑪⑫|
④⑯⑧⑨ |⑬⑭⑮⑯|
69
口①口① |①---|
口②②口 |----|
口②口② |②---|
口口②② |----|
70
①口口① |①---|
口口口口 |----|
口口口口
口口口口

口④③⑦
④口⑦③
②⑥口⑤ |②-③-④-|
⑥②⑤口 |⑤-⑥-⑦-|
71
①口口口 |①---|
口①口口 |②---|
②口②口 |----|
口②口② |----|
最終更新:2019年11月20日 21:00