アットウィキロゴ
ミライプリズム(collaboration ver.)
ここなつ meets 日向美ビタースイーツ♪

BASIC

Level: 5
BPM: 140
Notes: 358

1
口口口口 |----|
口口口口 |----|
口口口口 |----|
口口口口 |----|
2
口口口口 |----|
口口口口 |----|
口口口口 |----|
口口口口 |----|
3
口口②口 |①---|
口①①③ |②---|
口口口④ |③-④-|
口口口口 |----|
4
口②口口 |①---|
③①①口 |②---|
④口口口 |③-④-|
口口口口 |----|
5
口口口口 |①-②-|
②口口④ |----|
口①③口 |③-④-|
口口口口 |----|
6
①⑤⑤② |①-②-|
口口口口 |③-④-|
③口口④ |--⑤-|
口口口口 |----|
7
口口口口 |①---|
口①口口 |--②-|
口口口口
②口口口

口口口口
③<口口
口口口口 |----|
口口口口 |③---|
8
口口口口 |①---|
口口①口 |--②-|
口口口口
口口口②

口口口口
③口>③
口口口口 |----|
口口口口 |③---|
9
口①口口 |①---|
③口口③ |--②-|
④②口口 |--③-|
口口口口 |④---|
10
口口口口 |①---|
②①①② |②-③-|
口口口口
口③③口

口口口口
口④④口
口口口口 |--④-|
口口口口 |----|
11
①①①① |①---|
口口口③ |②---|
口口②④ |③-④-|
口口口口 |----|
12
④口口口 |①---|
③①①口 |②---|
口②口口 |③-④-|
口口口口 |----|
13
口口口④ |①-②-|
口口③口 |----|
②口口口 |③-④-|
口①口口 |----|
14
口口口口 |①---|
③口口② |②-③-|
口④④口 |--④-|
口①①口 |----|
15
口口口口 |①---|
①口口口 |--②-|
口口口口
口②口口

口口口口
③口口
口口口口 |----|
口口口口 |③---|
16
口口口口 |①---|
口口口① |--②-|
口口口口
口口②口

口口口口
口③③<
口口口口 |----|
口口口口 |③---|
17
④①口口 |①---|
口口③口 |--②-|
口②口口 |--③-|
口口口口 |④---|
18
口口①口 |①-②-|
口②口口 |③-④-|
口口③口
口④口口

⑥⑥⑥⑥
口口口口
口口口口 |--⑤-|
⑤口口⑤ |⑥---|
19
口口口口 |①---|
口口口口
①口口①
口口口口

口∨口口
口②②< |--②-|
②②口 |----|
口口∧口 |----|
20
口口口口 |----|
口①①口 |----|
口①①口 |----|
口口口口 |--①-|
21
①口口口 |----|
②口③口 |①---|
口④口口 |②---|
口口口口 |③-④-|
22
④口口④ |--①-|
口口口口 |--②-|
口口口① |--③-|
口③③② |④---|
23
口口口口 |①---|
口①口口 |②---|
口②口口
口口口口

口口口口
口④口口
口口⑤口 |③---|
口③口口 |④-⑤-|
24
口口口口 |--①-|
口口口口 |--②-|
①口③口 |----|
②口口口 |③---|
25
①口口① |①---|
②口④② |②---|
③⑤口③ |③---|
口口口口 |④-⑤-|
26
④口口④ |--①-|
口口口口 |--②-|
口口口① |--③-|
口③③② |④---|
27
口口口口 |----|
④口口③ |①-②-|
口口口口 |--③-|
口①②口 |④---|
28
口口口口 |----|
③口口④ |①-②-|
口口口口 |--③-|
口②①口 |④---|
29
口口口口 |----|
④口口③ |①-②-|
口口口口 |--③-|
口①②口 |④---|
30
口口口口 |①---|
口口口口
口口口口
①<口口

口④④口
口口口口 |②-③-|
口③②口 |--④-|
②口口口 |----|
31
③口口④ |----|
口口口口 |①-②-|
口②①口 |--③-|
口口口口 |④---|
32
④口口③ |----|
口口口口 |①-②-|
口①②口 |--③-|
口口口口 |④---|
33
③口口④ |----|
口口口口 |①-②-|
口②①口 |--③-|
口口口口 |④---|
34
口口口口 |①---|
口口口口
口口>①
口口口口

口口口口
口④口口 |②---|
②③口② |③---|
口口口口 |④---|
35
口①①③ |①---|
口口口④ |②---|
口口口口 |③---|
口②②口 |④---|
36
③口口③ |①-②-|
口口口口 |--③-|
④①②口 |----|
口口口口 |④---|
37
③①①口 |①---|
口∨口口 |②---|
口⑤④口 |③---|
口②②口 |④-⑤-|
38
②口口② |--①-|
口口口口 |--②-|
口①口③ |----|
口口口口 |③---|
39
口①①③ |①---|
口口口④ |②---|
口⑤⑤口 |③---|
口②②口 |④-⑤-|
40
②口口② |--①-|
口①①口 |--②-|
口口口口
口口口口

口口口口
口③口口
口口口口 |----|
口口口口 |③---|
41
③口口③ |①---|
口口口口 |②-③-|
口①口口
②口口②

口口口口
⑤⑤<
口④④口 |--④-|
口口口口 |--⑤-|
42
③③③③ |----|
口①①口 |①---|
口口口口 |②---|
②口口② |③---|
43
口口口口 |①-②-|
口①②③ |③-④-|
口口口口 |⑤-⑥-|
口⑥⑤④ |----|
44
口⑦口口 |①-②-|
③②①口 |③-④-|
口口口口 |⑤-⑥-|
④⑤⑥口 |--⑦-|
45
口口口口 |①-②-|
①口⑤口 |--③-|
口②口④ |④-⑤-|
口口③口 |----|
46
口口口口 |①---|
口②②口 |②-③-|
口①①口
③<>③

口口口口
④口口④
口口口口 |--④-|
④口口④ |----|
47
口∨口口 |①---|
口①口口
口口口口
口口口口

口口口口
口②口口 |--②-|
口口口口
②口口口

口口口口
③<口口
口口口口 |----|
口口口口 |③---|
48
口口口口 |①---|
口口①口 |--②-|
口口口口
口口②口

口口口口
③口>③
口口口口 |----|
口口口口 |③---|
49
①口口口 |①---|
口口口③ |--②-|
④②口口 |--③-|
口口口口 |④---|
50
②口口② |①---|
口①①口 |②-③-|
③<>③
口口口口

口④④口
口口口口
④口口④ |--④-|
口口口口 |----|
51
口口口口 |①-②-|
口①②③ |③-④-|
口口口口 |⑤-⑥-|
口⑥⑤④ |----|
52
口口口口 |①-②-|
③②①口 |③-④-|
口口口口
④口口口

口口口口
口⑦口口
口口口口 |⑤-⑥-|
口⑤⑥口 |--⑦-|
53
口口⑤口 |①-②-|
口口口④ |--③-|
①口③口 |④-⑤-|
口②口口 |----|
54
口口口口 |①---|
口①①口
口口口口
口口口口

口口口口
③<>③ |②-③-|
口口口口
②口口②

口口口口
④口口④
口口口口 |--④-|
口④④口 |----|
55
口口口口 |①---|
①口口
口口口口
口口口口

口口口口
口②口口 |--②-|
口口口口
②口口口

口口口口
③<口口
口口口口 |----|
口口口口 |③---|
56
口口口口 |①---|
口口①口 |--②-|
口口口口
口口口②

口口口口
③口>③
口口口口 |----|
口口口口 |③---|
57
①口口口 |①---|
口③口③ |--②-|
②口口口 |----|
口口口口 |③---|
58
口①①口 |①---|
②口口③ |②-③-|
②口口③
口口口口

⑤⑤⑤⑤
口口口口
口口口口 |--④-|
口④④口 |⑤---|
59
口口口口 |①---|
口口口口
①口口①
口口口口

口口∨口
②②口 |--②-|
口②②< |----|
口∧口口 |----|
60
口口口口 |----|
口①①口 |----|
口①①口 |----|
口口口口 |--①-|
61
口口口① |----|
口③口② |①---|
口口④口 |②---|
口口口口 |③-④-|
62
④口口④ |--①-|
口口口口 |--②-|
①口口口 |--③-|
②③③口 |④---|
63
口口口口 |①---|
口口①口 |②---|
口口②口
口口口口

口口口口
口口④口
口⑤口口 |③---|
口口③口 |④-⑤-|
64
口口口口 |--①-|
口口口口 |--②-|
口③口① |----|
口口口② |③---|
65
①口口① |①---|
②④口② |②---|
③口⑤③ |③---|
口口口口 |④-⑤-|
66
④④④④ |--①-|
口口口口 |--②-|
①口口口 |--③-|
②③③口 |④---|
最終更新:2019年10月22日 03:18