アットウィキロゴ
ミライプリズム(collaboration ver.)
ここなつ meets 日向美ビタースイーツ♪

EXTREME

Level: 9
BPM: 140
Notes: 628

1
口口口口 |----|
口口口口 |----|
口口口口 |----|
口口口口 |----|
2
口③口① |----|
口口口口 |----|
口②口口 |--①-|
口口口口 |②-③-|
3
⑦口口口 |①-②-|
④口口③ |③-④-|
⑤口①① |⑤-⑥-|
⑥②口口 |--⑦-|
4
口⑦③口 |①-②-|
口口口④ |③-④-|
②①①⑤ |⑤-⑥-|
口口口⑥ |--⑦-|
5
口口①① |①-②-|
①口口口 |--③-|
口②口口
口口③口

口⑥⑥口
⑦口⑤⑦
口口口④ |④-⑤-|
口口口口 |⑥-⑦-|
6
①口口② |①-②-|
口③④口 |③-④-|
口②①口
④口口③

⑥口口口
口口口口
⑤口口⑤ |--⑤-|
口口口口 |--⑥-|
7
口口口口 |①---|
口①口口 |--②-|
口口口口
②口口口

口口口④
③<口口
口口口口 |----|
口口口口 |③-④-|
8
口口口口 |①---|
口口①口 |--②-|
口口口口
口口口②

口口口口
③口>③
口口口口 |----|
口口口口 |③---|
9
口①口口 |①---|
③口口③ |--②-|
④②口口 |--③-|
⑤口口⑤ |④-⑤-|
10
②口口② |①-②-|
③①①③ |③-④-|
口口口口
④④<

口口口口
口⑤⑤口
口口口口 |--⑤-|
口⑤⑤口 |----|
11
①①①① |①-②-|
口口口④ |③-④-|
③口②口
口口口口

口口口⑦
口口口口
口口口⑤ |⑤-⑥-|
口口口⑥ |--⑦-|
12
⑤口口⑤ |①---|
④⑥口④ |②-③-|
③①①③ |④-⑤-|
口②②口 |--⑥-|
13
⑥口⑤⑥ |①-②-|
口口⑦④ |--③-|
①⑦③口 |④-⑤-|
口②①① |⑥-⑦-|
14
口②④口 |①-②-|
①口口③ |③-④-|
③口口①
口④②口

口⑥口口
口⑤口口
口口⑤口 |--⑤-|
口口口口 |--⑥-|
15
口口口口 |①---|
①口口口 |--②-|
口口口口
口②口口

口口④口
③口口
口口口口 |----|
口口口口 |③-④-|
16
口口口口 |①---|
口口口① |--②-|
口口口口
口口②口

口口口口
口③③<
口口口口 |----|
口口口口 |③---|
17
④①口口 |①---|
口口③口 |--②-|
口②口口 |--③-|
口口口口 |④---|
18
口①①口 |①-②-|
②口口② |③-④-|
③口口③
口④④口

⑥⑥⑥⑥
口口口口
口⑤⑤口 |--⑤-|
口口口口 |⑥---|
19
④③③口 |①---|
①⑤口② |②-③-|
②⑥口① |④---|
③③< |⑤-⑥-|
20
口⑤口② |--①-|
口④口口 |--②-|
口③口① |--③-|
口⑤⑤口 |④-⑤-|
21
口口口口 |①---|
①口口② |②---|
②口口①
口口口口

③口口口
口口④口
口④口⑤ |③---|
⑤口口③ |④-⑤-|
22
①③口② |--①-|
③口口口 |--②-|
④②口口 |--③-|
口④口① |④---|
23
口②口③ |①---|
②④①口 |②---|
⑤口④① |③---|
③口口⑤ |④-⑤-|
24
②口口① |--①-|
口③口口 |--②-|
口④②口 |--③-|
①⑤口口 |④-⑤-|
25
口②口③ |①---|
②④①口 |②---|
⑤口④① |③---|
③口口⑤ |④-⑤-|
26
②口口口 |--①-|
①口口口 |--②-|
口口②①
口口口口

口口③口
口口口③
口口口④ |--③-|
口口④口 |④---|
27
⑤口口④ |--①-|
⑥口口口 |②-③④|
口口口口 |--⑤-|
①②③口 |⑥---|
28
④口口⑤ |--①-|
口口口⑥ |②-③④|
口口口口 |--⑤-|
口③②① |⑥---|
29
口⑤口④ |--①-|
口口⑥口 |②-③④|
口口口⑦ |--⑤-|
①②③口 |⑥-⑦-|
30
口口口口 |①---|
口口口口
口口口口
①<口口

口口⑤口
口口④口 |②-③-|
口口③口 |④-⑤-|
②口②口 |----|
31
④口口⑤ |--①-|
口口口⑥ |②-③④|
口口口口 |--⑤-|
口③②① |⑥---|
32
⑤口口④ |--①-|
⑥口口口 |②-③④|
口口口口 |--⑤-|
①②③口 |⑥---|
33
④口⑤口 |--①-|
口⑥口口 |②-③④|
⑦口口口 |--⑤-|
口③②① |⑥-⑦-|
34
口口口口 |①---|
口口口口
口口口口
口口>①

④口口口
⑤口口⑥ |②-③-|
⑥③口⑤ |④-⑤-|
⑦②口② |⑥-⑦-|
35
口①①口 |①---|
口口口口 |②---|
口口口口
口口②②

③④⑤口
④口口⑥
⑤口口口 |③-④-|
口⑥口口 |⑤-⑥-|
36
③口口③ |①-②-|
口口口口 |--③-|
口口口①
口口①②

口口口口
⑥口⑥口
口⑤口⑤ |--④-|
④口④口 |⑤-⑥-|
37
口①口① |①---|
口∧口∧
口口口口
口口口口

口②口②
④口口④ |②--③|
②口②口 |④-⑤-|
③⑤⑤③

⑥口口⑦
∨口口∧
⑦口口⑥
口口口口 |⑥-⑦-|
38
口①③① |--①-|
口②②口 |②-③-|
①③①口
口口口口

口口口口
⑥口口⑥
⑤口口⑤ |--④-|
口④④口 |⑤-⑥-|
39
口①①② |①---|
口口②口 |②---|
口口口口
口口口口

⑥口口⑥
③口口③
④⑥⑥④ |③-④-|
⑤口口⑤ |⑤-⑥-|
40
口②②口 |--①-|
口①①口 |--②-|
②④③② |--③-|
⑤④③⑤ |④-⑤-|
41
①②③① |①---|
①②③① |②-③-|
口口口口
口口口口

口口口口
∨口口口
⑤口口口 |--④-|
④⑤<④ |--⑤-|
42
口①①口 |①---|
口②③口 |②-③-|
②口口口
口②口口

口口口④
口∨口⑤
口④口⑥ |④⑤⑥⑦|
口口口⑦

⑧⑧⑧口
口口口口
⑨⑧⑨口
口口口口 |⑧-⑨-|
43
口口④③ |①-②-|
①②③④ |③-④-|
口口口口
③②①口

⑥⑤口⑦
口口口口
口口口⑤ |⑤-⑥-|
⑦口口⑥ |--⑦-|
44
⑥⑦②口 |①-②-|
②①⑥⑤ |③-④-|
④⑤①③ |⑤-⑥-|
口③④口 |--⑦-|
45
口口口口 |①-②-|
①口口口 |--③-|
口②口口
口口③口

口⑥⑥口
⑦口⑤⑦
口口口④ |④-⑤-|
口口口口 |⑥-⑦-|
46
①口∨② |①-②-|
口③④口 |③-④-|
口②①口
④<口③

口口口口
口口⑤口
⑤⑥口⑤ |--⑤-|
⑤口口口 |--⑥-|
47
口∨口口 |①---|
口①口口
口口口口
口口口口

口口口口
口②口口 |--②-|
口口口口
②<口口

口口口口
③<口口
口口④口 |----|
③口口口 |③-④-|
48
口口口口 |①---|
口口①<
口口口口
口口口口

口口口口
口口②口 |--②-|
口口口口
口口>②

口口口口
④口>④
口口口③ |--③-|
口口口③ |④---|
49
①<口口 |①---|
口口口口
口口口口
口口口口

②口口口
口②口口 |②-③-|
口③<口
口口口口

口口口口
④口口④
⑤④口口 |--④-|
⑥口口⑥ |⑤-⑥-|
50
③口口③ |①-②-|
口①①口 |③-④-|
④<>④
口②②口

口⑤⑤口
口口口口
⑤⑧口⑤ |--⑤-|
口⑦口⑥ |⑥-⑦⑧|
51
①口口① |①-②-|
②④③④ |③-④-|
口口口口
②口③口

⑥口⑥⑦
⑦口口口
口口口口 |⑤-⑥-|
口⑤口⑤ |--⑦-|
52
口①口口 |①-②-|
口口①④ |③-④-|
④②②口
③口口③

口⑥⑥口
⑤⑦口口
口口口⑤ |⑤-⑥-|
口口口口 |--⑦-|
53
⑥口⑤⑥ |①-②-|
口口⑦④ |--③-|
①⑦③口 |④-⑤-|
口②口口 |⑥-⑦-|
54
口②④< |①-②-|
①口口③ |③-④-|
③口口①
④②口

口口⑤口
⑤口口口
口⑥口⑤ |--⑤-|
口⑤口口 |--⑥-|
55
口口口口 |①---|
①口口
口口口口
口口口口

口口口口
口②口口 |--②-|
口口口口
②<口口

口口口口
③<口口
口口④口 |----|
③口口口 |③-④-|
56
口口口口 |①---|
口口①<
口口口口
口口口口

口口口口
口口②口 |--②-|
口口口口
口口>②

口口口口
③口>③
口口口口 |----|
口口口③ |③---|
57
①口口口 |①---|
∧口口口
口口口口
口口口口

②口口口
口口口口 |--②-|
②<口口
口口口口

口口口口
口③口③
③口口口 |----|
口口口口 |③---|
58
②①②① |①-②-|
①④①④ |③-④-|
④②④②
③口口③

⑥⑥⑥⑥
口口口口
口口口口 |--⑤-|
口⑤⑤口 |⑥---|
59
口③③④ |①---|
①⑤⑤② |②-③-|
②⑥⑥① |④---|
③③< |⑤-⑥-|
60
①⑤⑤② |--①-|
①④④② |--②-|
口③③口 |--③-|
口⑤⑤口 |④-⑤-|
61
口口口口 |①---|
①口口② |②---|
②口口①
口口口口

③口口口
口口④口
口④口⑤ |③---|
⑤口口③ |④-⑤-|
62
①③口② |--①-|
③口口③ |--②-|
④②口④ |--③-|
口④口① |④---|
63
口②口口 |①---|
②口口口 |②---|
口口①口
口口口①

口口口③
口④口口
⑤口④口 |③---|
③口口⑤ |④-⑤-|
64
②口口① |--①-|
口③口口 |--②-|
口④②口 |--③-|
①⑤口口 |④-⑤-|
65
口②口③ |①---|
②④①口 |②---|
⑤口④① |③---|
③口口⑤ |④-⑤-|
66
口口口① |--①-|
①口②口 |--②-|
口口口口
②口口口

④④④④
口口口口
③口口③ |--③-|
口③③口 |④---|
最終更新:2019年10月22日 03:18