アットウィキロゴ
天空の華
S-C-U × U1 overground

BASIC

Level: 7
BPM: 180
Notes: 435

1
口口口口 |----|
口口口口 |----|
口口口口 |----|
口口口口 |----|
2
∨口口口 |①---|
|口口口 |----|
|口②口 |②---|
①口口口 |----|
3
口口②口 |①---|
口口①口 |----|
口口口口 |②---|
口口口口 |----|
4
口口口∨ |①---|
口口口| |----|
口②口| |②---|
①口口① |----|
5
口②口口 |①---|
口①口口 |----|
口口口口 |②---|
口口口口 |----|
6
∨口口口 |①---|
|口口口 |----|
|口②口 |②---|
①口口① |----|
7
口口②口 |①---|
口口①口 |----|
口口口口 |②---|
口口口口 |----|
8
口口口∨ |①---|
口口口| |----|
口②口| |②---|
①口口① |----|
9
口②口口 |①---|
口①口口 |----|
口口口口 |②---|
口口口口 |----|
10
口口口口 |①---|
口口口口
①―<口
口口口①

口口口口
口>―② |--②-|
②口口口
口口口口

③――<
口口口③
口口口口 |----|
口口口口 |③---|
11
口口口口 |①---|
口①②口 |②---|
口口口口 |③---|
口③④口 |④---|
12
①口口口 |①---|
口口口口
口>―①
口口口口

口口口口
口口口口 |--②-|
口口口② |----|
②――< |----|
13
口口口口 |①---|
②口口① |②---|
④口口③ |③---|
④口口口 |④---|
14
口口①口 |①---|
④口口口 |②-③-|
口②③口 |----|
口口口口 |④---|
15
口口口口 |①---|
口③②口 |②-③-|
口口口口 |----|
口①口口 |----|
16
②口口① |①---|
②口口① |②---|
口④③口 |③-④-|
口口⑤口 |⑤---|
17
口口口口 |①---|
口口①口 |----|
口口口口 |----|
口口口口 |----|
18
口口口∨ |①-②-|
口口口| |----|
口口口②
①口口口

口口∨口
口口④口
③口口③ |----|
口口口口 |③-④-|
19
口口口口 |----|
口②①口 |--①-|
口③口口 |--②-|
口①口口 |--③-|
20
②口口① |①-②-|
④口口③ |③-④-|
⑥口口⑤ |⑤-⑥-|
⑧口口⑦ |⑦-⑧-|
21
口口口口 |----|
口口①口 |----|
口口口口 |----|
口口口口 |--①-|
22
口口口⑥ |①-②-|
③⑦⑧口 |③-④-|
口⑤④口 |⑤-⑥-|
口①②口 |⑦-⑧-|
23
①口口⑦ |①-②-|
口⑥口④ |③-④-|
口口口口 |⑤--⑥|
⑤③②口 |--⑦-|
24
口口③< |①--②|
口口口口 |--③-|
口口②口 |----|
口口①口 |----|
25
口①口口 |①---|
口②口口 |②---|
口③口口 |③---|
口④口口 |④---|
26
口口①∨ |①-②-|
口口口| |----|
口口口②
①口口口

口口∨口
口口④口
③口口③ |----|
口口口口 |③-④-|
27
口口口口 |----|
口②①口 |--①-|
口③口口 |--②-|
口①口口 |--③-|
28
②口口① |①-②-|
④口口③ |③-④-|
⑥口口⑤ |⑤-⑥-|
⑧口口⑦ |⑦-⑧-|
29
口口口口 |----|
口口①口 |----|
口口口口 |----|
口口口口 |--①-|
30
口口口⑥ |①-②-|
③⑦⑧口 |③-④-|
口⑤④口 |⑤-⑥-|
口①②口 |⑦-⑧-|
31
①⑤⑥口 |①-②-|
口⑦⑧④ |③-④-|
口口口口 |⑤-⑥-|
口③②口 |⑦-⑧-|
32
①口口② |①-②-|
③口口④ |③-④-|
口⑤⑥口 |⑤-⑥-|
口⑦⑧口 |⑦-⑧-|
33
口⑦⑧口 |①-②-|
口⑤⑥口 |③-④-|
③口口④ |⑤-⑥-|
①口口② |⑦-⑧-|
34
②口口口 |①---|
②⑤④③ |②---|
口口口口 |--③-|
①①口口 |④-⑤-|
35
口口口口 |①---|
口口口口 |②---|
①②③④ |③---|
①②③④ |④---|
36
口口口口 |①---|
④④②② |②---|
口口口口 |③---|
①口③口 |④---|
37
口②②口 |①-②-|
口④④口 |----|
口①口口 |③-④-|
口口③口 |----|
38
口口②② |①---|
③④⑤口 |②---|
口口口① |--③-|
口口口① |④-⑤-|
39
口口口口 |①---|
口口口口 |②---|
④③②① |③---|
④③②① |④---|
40
②⑥⑤① |①-②-|
口口口口 |③-④-|
口口口口 |⑤-⑥-|
⑧④③⑦ |⑦-⑧-|
41
口口口口 |①-②-|
①②③④ |③-④-|
⑧⑦⑥⑤ |⑤-⑥-|
口口口口 |⑦-⑧-|
42
⑥④口口 |①-②-|
口②③口 |③-④-|
口∨口口 |⑤-⑥-|
口⑦①⑤ |--⑦-|
43
③口口② |----|
口口口口 |--①-|
口口口口 |--②-|
口①①口 |--③-|
44
口口口口 |①-②-|
口口②① |③-④-|
③④口口 |⑤-⑥-|
⑦⑧⑥⑤ |⑦-⑧-|
45
口口口口 |①-②-|
口③②① |③---|
口口口口 |----|
口口口口 |----|
46
口④①口 |①---|
④口②① |②---|
口口③② |③---|
口口口③ |④---|
47
口口口口 |①---|
口①口口 |②---|
①②口口 |③---|
②④③口 |④---|
48
③口口③ |①---|
②④④① |②---|
②④④① |③---|
口口口口 |--④-|
49
口口口口 |----|
口口口口 |----|
口口口口 |----|
口口口口 |----|
50
口口口口 |①-②-|
④④②② |----|
口口口口 |----|
①口口③ |③-④-|
51
口口口口 |----|
口口口口 |----|
口口口口 |----|
口口口口 |----|
52
口口口口 |①-②-|
口⑤⑥⑦ |③-④-|
①②③④ |--⑤-|
口口口口 |⑥-⑦-|
53
口口口口 |----|
口口口口 |----|
口口口口 |----|
口口口口 |----|
54
口口口口 |①-②-|
口口口口 |③-④-|
口口口∨
①②③④

口口口口
口口口口
口口口口 |----|
口口口⑤ |⑤---|
55
口口口∨ |①-②-|
①②③④ |③-④-|
口口口口
口口口口

口口口口
口口口⑤
口口口口 |----|
口口口口 |⑤---|
56
②口口② |①---|
口口口口 |--②-|
口口口口 |--③-|
③①①③ |----|
57
口口口口 |①---|
口口口口 |----|
口∨∨口 |----|
口①①口 |----|
58
口口口口 |①---|
①―<口
口口口口
口①①口

口口口口
②口口口 |--②-|
口>―②
口口口口

③――<
口口口口
口口口③ |----|
口口口口 |③---|
59
口口口口 |①---|
口②①口 |②---|
口口口口 |③---|
口④③口 |④---|
60
①口口口 |①---|
口口口口
口>―①
口口口口

口口口口
②―<口 |--②-|
口口口②
口口口口

口口口口
③口口口
口口口口 |----|
――③ |③---|
61
口口口口 |①---|
口③④口 |②---|
口①②口 |③---|
口口口口 |④---|
62
口口口口 |①---|
口口口口
①―<口
口口口①

口口口口
口>―② |--②-|
②口口口
口口口口

③――<
口口口③
口口口口 |----|
口口口口 |③---|
63
口口口口 |①---|
口②①口 |②---|
口口口口 |③---|
口④③口 |④---|
64
①口口口 |①---|
口口口口
口>―①
口口口口

口口口口
②―<口 |--②-|
口口口②
口口口口

口③③口
③口口口
口口口口 |----|
口口口口 |③---|
65
①口口① |①---|
|口口| |----|
∧口口∧
口口口口

②口口②
口口口口
口口口口 |②---|
口口口口 |----|
66
口口口口 |①---|
②②口口 |②---|
⑥⑤④③ |③-④-|
①①口口 |⑤-⑥-|
67
③口口④ |①---|
口口②② |②---|
⑤口口⑥ |③-④-|
口口①① |⑤-⑥-|
68
口①①口 |①--②|
口②②口 |--③-|
⑤③③⑥ |-④--|
口④④口 |⑤-⑥-|
69
⑤⑥⑦⑧ |①-②-|
①②③④ |③-④-|
口口口口 |⑤-⑥-|
口口口口 |⑦-⑧-|
70
口口口口 |①---|
口①口口 |②-③-|
②③④口 |④---|
⑤口口口 |⑤---|
71
③③口口 |①--②|
口口②口 |--③-|
口口④④ |----|
口口口① |④---|
72
②③③② |①---|
口口口口 |--②-|
口口口口 |----|
口①①口 |③---|
73
口口口口 |①-②-|
口口口口 |③-④-|
⑤⑥⑦⑧ |⑤-⑥-|
①②③④ |⑦-⑧-|
74
口⑤⑥口 |①-②-|
③⑦口② |③-④-|
口口⑧口 |⑤-⑥-|
①口口④ |⑦-⑧-|
75
②口口③ |①--②|
口⑤口口 |--③-|
口口⑥口 |-④--|
口①④口 |⑤-⑥-|
76
④口口口 |①--②|
③⑥⑤口 |--③-|
②口口口 |-④--|
①口口口 |⑤-⑥-|
77
口口口① |①---|
⑥口口⑦ |②-③-|
口④③口 |④-⑤-|
口②⑤口 |⑥-⑦-|
78
口③⑥口 |①-②-|
口②⑤口 |③-④-|
①口口④ |⑤-⑥-|
口⑦⑧口 |⑦-⑧-|
79
①口口① |①--②|
②⑤⑥② |--③-|
③口口③ |-④--|
④口口④ |⑤-⑥-|
80
③口口③ |①--②|
|口口| |--③-|
|②②| |----|
∧①①∧ |----|
81
①①①① |①---|
口口口口 |----|
口口口口 |----|
口口口口 |----|
最終更新:2019年10月22日 03:22