アットウィキロゴ
Diargosの森
Mutsuhiko Izumi

EXTREME

Level: 9
BPM: 140
Notes: 544

1
口口口口 |----|
口口口口 |----|
口口口口 |----|
口口口口 |----|
2
口口⑦④ |①-②-|
口口⑥③ |③-④-|
口口⑤② |--⑤-|
①――< |⑥-⑦-|
3
口③口④ |--①-|
口②口口 |②-③-|
口①⑤口 |--④-|
口口口口 |--⑤-|
4
口口⑥③ |--①-|
口口⑤② |②-③-|
口口④① |--④-|
口口口口 |⑤-⑥-|
5
口③口口 |--①-|
口②口口 |②-③-|
口①口口
口口口口

口口口④
⑤⑥⑦口
口口口口 |--④-|
口口口口 |---⑤⑥⑦|
6
口∨口④ |①----②|
口|口① |③-④-|
口|口③
①①口②

口口口口
口口口口
⑤⑥⑦口 |----|
口口口口 |---⑤⑥⑦|
7
口口②口 |①----②|
口口③口 |③-④-|
口口口①
口口④口

口口口口
⑤⑥⑦口
口口口口 |----|
口口口口 |---⑤⑥⑦|
8
口口④口 |①----②|
口口口① |③-④-|
口口③口
口口②口

口口口口
口口口⑦
口口口⑥ |--⑤-|
口口口⑤ |⑥-⑦-|
9
口口口口 |①---|
②③②③ |②---|
①④①④ |③---|
口口口口 |④---|
10
④⑦口口 |①-②-|
③⑥口口 |③-④-|
②⑤口口 |--⑤-|
①―① |⑥-⑦-|
11
⑥口③口 |--①-|
⑤口②口 |②-③-|
④口①口 |--④-|
口口口口 |⑤-⑥-|
12
口∨∨口 |①---|
口||口 |----|
口①①口
口口口①

③③口口
口口口口
④②②口 |②---③-|
口口口口 |--④---|
13
口口①① |①---②-|
口④④口 |--③---|
口口口② |④---|
口③③口 |----|
14
口⑦④口 |①-②-|
口⑥③口 |③-④-|
口⑤②口 |--⑤-|
①――< |⑥-⑦-|
15
③口⑥口 |--①-|
②口⑤口 |②-③-|
①口④口 |--④-|
口口口口 |⑤-⑥-|
16
③②⑤⑥ |①---②-|
②③⑥⑤ |--③---|
口口④④ |④---⑤-|
①①①口 |--⑥---|
17
口②③口 |①---②-|
②口口③ |--③---|
口①口口
口口①口

口口口口
⑫⑬⑭口
④⑧⑩⑥ |④⑤⑥⑦⑧⑨|
⑤⑨⑪⑦ |⑩⑪-⑫⑬⑭|
18
④口口口 |①----②|
口口口① |③-④-|
③口口口
②口口口

口口口口
口口口口
⑤⑥⑦口 |----|
口口口口 |---⑤⑥⑦|
19
口②口口 |①----②|
口③口口 |③-④-|
口口口①
口④口口

口口口口
⑤⑥⑦口
口口口口 |----|
口口口口 |---⑤⑥⑦|
20
⑤口④口 |①----②|
⑥口口① |③-④-|
⑦口③口 |--⑤-|
口口②口 |⑥-⑦-|
21
口口口口 |①---|
口①①口 |②---|
口口口口
口②②口

口③③口
⑤⑥⑦口
口④④口 |③---|
⑤⑥⑦口 |④--⑤⑥⑦|
22
②口口③ |①---|
口口口① |②-③-|
②口口③
口口口①

④⑤⑥口
口口口口
④⑤⑥口 |----|
口口口口 |---④⑤⑥|
23
口口口① |①---|
口②口③ |②-③-|
口口口①
口②口③

口口口口
④⑤⑥口
口口口口 |----|
④⑤⑥口 |---④⑤⑥|
24
②③②口 |①---|
口口口① |②-③-|
③②③口
口口口①

口口口口
口⑥④⑤
口口口④ |--④-|
口口⑤⑥ |⑤-⑥-|
25
①②③④ |①---|
口口口口 |②---|
①②③④ |③---|
口口口口 |④---|
26
口>―② |①---|
①―<口 |----|
口>―② |②---|
①―<口 |----|
27
口口口口 |①---|
①口口口 |----|
口①<口
①口口口

口口③②
口口④口
口②⑤② |②---|
口口口口 |---③④⑤|
28
口①②口 |①---|
口∧∧口 |----|
①口口② |②---|
∧口①∧ |----|
29
∨口口∨ |①---|
①口口① |----|
①口口①
口口口口

②②②口
②③口②
口口口口 |----|
口口口口 |②-③-|
30
②口口① |①---|
③口口| |---②③④|
④口口∧ |⑤---|
⑤―<口 |----|
31
口口口① |①---|
口口口口
口①―<
①口口口

―⑤口
口口④口 |---②③④|
口口③口 |⑤---|
口口②口 |----|
32
口口①口 |①---|
口①―< |----|
口①口口
―①口

②③④口
口口口口
口口口口 |----|
口口口口 |---②③④|
33
口口口① |①---|
口①口| |----|
口口口∧
口口①口

②口口②
③④⑤口
口口口口 |②---|
口口口口 |---③④⑤|
34
口口口口 |①---|
口口口① |----|
口口口|
口口口∧

口口∨口
口口|②
口口③口 |②-③-|
口口口口

口口口口
口口口口
口④④口
口口口口 |--④-|
35
∨口口口 |①---|
|口口口 |----|
①口口口
口口口口

口口②口
口口③口
②口④口 |--②-|
口口口口 |③-④-|
36
口①―< |①---|
口口口口
口口口口
口口口口

口②口口
口②<口 |--②-|
口口口口
口口口口

口口口口
口③口④
口口③口 |----|
口口口口 |③-④-|
37
口>―① |①---|
口口口口 |----|
口口口口
口口口口

口⑤③②
口④②口
口口口口 |----|
口口口口 |②③④⑤|
38
口口口口 |①---|
①口口口 |----|
|口口口
∧口口口

口口∨口
②口|口
口口②口 |--②-|
口口口口

口口口口
口口口口
口③③口
口口口口 |--③-|
39
∨口口口 |①---|
|口口口
①口口口
口口口口

口口口口
口②②④ |--②-|
②③口口 |----|
口口口口 |③-④-|
40
①――< |①---|
口口口口
口口口口
口口口口

②口口口
―②口 |--②-|
口口口口
口口口口

口口③口
口口③口
口④口口 |----|
口口口口 |③-④-|
41
口口口口 |①---|
①口口口 |----|
|口口口
∧口口口

口口②口
②口口③
口口④口 |②-③-|
口口口⑤ |④-⑤-|
42
口口∨口 |①-②③|
口口|口
③口|口
②口①口

口⑥口∨
④⑦口| |④-⑤-|
口⑧口⑤ |⑥-⑦-|
口⑨⑤口 |⑧-⑨-|
43
口口口口 |①-②③|
③口∨口
②口|①
口口①口

④⑥口口
口⑦口∨ |④-⑤-|
口⑧口| |⑥-⑦-|
⑨⑩⑤⑤ |⑧-⑨⑩|
44
口口∨口 |①---|
口口|口 |----|
口口①口
口口口①

③②口口
②口④口
口③②口 |②---③-|
口口口④ |--④---|
45
口口口口 |①---|
②口口口 |--②③|
③口口① |④---|
④口①口 |----|
46
口∨口口 |①-②③|
口|口口
口|口③
口①口②

∨口⑥口
|口⑦④ |④-⑤-|
⑤口⑧口 |⑥-⑦-|
口⑤⑨口 |⑧-⑨-|
47
口口口口 |①-②③|
口∨口③
①|口②
口①口口

∨口⑥④
⑤口⑦口 |④-⑤-|
口口口⑧ |⑥-⑦-|
口⑤口⑨ |⑧-⑨-|
48
③②口② |①---②-|
①口口① |--③---|
②③②口
口①①口

口口⑥口
⑤④④⑤
口口口⑥ |④---⑤-|
④⑤⑤④ |--⑥---|
49
②①口① |①---②-|
口③②③ |--③---|
①②①口
③口③②

口口④口
④∨<口
口>∧④ |④---|
口④口口

口口⑤口
⑤口口口
口口口⑤
口⑤口口 |⑤---|
50
∨口口① |①---|
|口口| |----|
|口口|
①口口∧

口口口②
口②<口
口>②口 |--②-|
②口口口

口口③口
口③口口
口口③口
口③口口 |--③-|
51
口口口口 |①---|
――① |----|
①――< |----|
口口口口 |----|
52
口①―< |①---|
口口口① |----|
①口口口
―①口

口②口口
口口③口
口②口口 |----|
口口②口 |②-③-|
53
―①口 |①---|
口口口口 |----|
口口口口
口口口口

口口②口
口②―<
口口口口 |②---|
口口口口 |----|
54
①―<口 |①-②-|
口①口口 |③-④-|
口口④③
口口②①

⑦口⑧⑦
口口⑥⑤
⑧⑦口口 |⑤-⑥-|
口口口口 |⑦-⑧-|
55
口①―< |①-②-|
口口口口 |③-④-|
口口④③
口口②①

口⑦⑧⑦
⑧⑦⑥⑤
口口口口 |⑤-⑥-|
口口口口 |⑦-⑧-|
56
口口口口 |①-②-|
口口口口
①―<口
口口②①

口口⑧⑦
口口⑥⑤ |③-④-|
口口④③ |⑤-⑥-|
口口口口 |⑦-⑧-|
57
口口口⑧ |①②③④|
口①口⑦ |⑤⑥⑦⑧|
①②口⑥
口③④⑤

⑪⑩⑨口
⑫口⑯口
⑬⑭⑮口 |⑨⑩⑪⑫|
口口口口 |⑬⑭⑮⑯|
58
②―<口 |①---|
口>―① |----|
②―<口 |②---|
口>―① |----|
59
口口口口 |①---|
①口① |----|
口口口口
口口口①

②口口③
口口口④
②口口⑤ |②---|
口口口口 |---③④⑤|
60
⑤―<口 |①---|
④①口口 |---②③④|
③口口口 |⑤---|
②>―① |----|
61
①∨口口 |①---|
口|①口 |----|
口①|口
口口∧①

口口口口
②口②口
③②口口 |----|
口口口口 |②-③-|
62
口>―⑤ |①---|
口口口④ |---②③④|
口口口③ |⑤---|
①―<② |----|
63
口口口① |①---|
口口口口
口①―<
①口口口

―⑤口
口口④口 |---②③④|
口⑤③口 |⑤---|
口口②口 |----|
64
①②①口 |①-②-|
③④⑩口 |③-④-|
⑤⑥⑨口 |⑤-⑥-|
⑦口⑧口 |⑦--⑧⑨⑩|
65
―①口 |①---|
口口口口 |----|
口口口口
口口口口

∨口②∨
|口口|
②口口② |②---|
口口口口 |----|
66
口口口口 |----|
口口口口 |----|
口口口口 |----|
口口口口 |----|
67
口口口口 |①---|
口口口口 |----|
①口口① |----|
口口口口 |----|
68
口口口口 |①---|
∨∨∨∨ |----|
|||| |----|
①①①① |----|
69
口口口口 |----|
口口口口 |----|
口口口口 |----|
口口口口 |----|
70
口口口口 |①---|
口口口口 |----|
口口口口 |----|
①①①① |----|
最終更新:2019年10月23日 02:00