アットウィキロゴ
ススススペースハリネズミ
S-C-U

ADVANCED

Level: 8
BPM: 182
Notes: 595

1
口口①口 |----|
口口口口 |----|
口口口口 |----|
口口口口 |--①-|
2
口口口口 |①---|
①口⑥② |②---|
口④⑤口 |③-④-|
口③口口 |⑤-⑥-|
3
③――< |--①-|
口口口② |②-③-|
①口口口
口口口口

④口口口
口口口口
――⑤ |----|
口口口口 |④-⑤-|
4
口口口口 |----|
②――< |--①-|
口口口① |②---|
口口口口

――③
③口口口
口口口口
口口口口 |--③-|
5
口口④① |----|
口③③口 |①-②-|
口口口口 |--③-|
口②②口 |--④-|
6
口口口口 |①---|
①口⑥② |②---|
口④⑤口 |③-④-|
口③口口 |⑤-⑥-|
7
③口口⑥ |--①-|
⑤口口② |②-③-|
①口口④ |--④-|
口口口口 |⑤-⑥-|
8
口口口口 |----|
口口口口 |----|
口口口口 |----|
口口口口 |----|
9
口口口口 |----|
口口口口 |----|
口口口口 |----|
口口口口 |----|
10
①口②② |①-②-|
③口④④ |③-④-|
⑤口⑥⑥ |⑤-⑥-|
⑦口⑧⑧ |⑦-⑧-|
11
①口②② |①-②-|
③⑤④④ |③-④-|
口口⑥⑥ |⑤-⑥-|
口⑤口口 |----|
12
③⑧⑧④ |①-②-|
②口口⑤ |③-④-|
①口口⑥ |⑤-⑥-|
口⑦⑦口 |⑦-⑧-|
13
口口口口 |①---|
口②②口 |②---|
口③⑥口 |③-④-|
①④⑤① |⑤-⑥-|
14
③⑧⑧④ |①-②-|
②口口⑤ |③-④-|
①口口⑥ |⑤-⑥-|
口⑦⑦口 |⑦-⑧-|
15
口口口口 |①---|
口②②口 |②---|
口③⑥口 |③-④-|
①④⑤① |⑤-⑥-|
16
③⑧⑧④ |①-②-|
②口口⑤ |③-④-|
①口口⑥ |⑤-⑥-|
口⑦⑦口 |⑦-⑧-|
17
②口口② |①---|
口①①③ |②---|
口口⑥口 |③-④-|
口④⑤口 |⑤-⑥-|
18
③⑧⑧④ |①-②-|
②口口⑤ |③-④-|
①口口⑥ |⑤-⑥-|
口⑦⑦口 |⑦-⑧-|
19
口⑥⑥口 |①---|
口②②口 |②---|
口③④口 |③-④-|
①⑤⑤① |⑤-⑥-|
20
③⑧⑧④ |①-②-|
②口口⑤ |③-④-|
①口口⑥ |⑤-⑥-|
口⑦⑦口 |⑦-⑧-|
21
口口口口 |①---|
口②②口 |②---|
口③⑥口 |③-④-|
①④⑤① |⑤-⑥-|
22
③⑧⑧④ |①-②-|
②口口⑤ |③-④-|
①口口⑥ |⑤-⑥-|
口⑦⑦口 |⑦-⑧-|
23
口口口口 |①---|
口②②口 |②---|
口③⑥口 |③-④-|
①④⑤① |⑤-⑥-|
24
③⑧⑧④ |①-②-|
②口口⑤ |③-④-|
①口口⑥ |⑤-⑥-|
口⑦⑦口 |⑦-⑧-|
25
②口口② |①---|
口①①③ |②---|
口口⑥口 |③-④-|
口④⑤口 |⑤-⑥-|
26
③⑧⑧④ |①-②-|
②口口⑤ |③-④-|
①口口⑥ |⑤-⑥-|
口⑦⑦口 |⑦-⑧-|
27
②口口② |①---|
④④④④ |②---|
③③③③ |③---|
①口口① |④---|
28
③①②④ |①-②-|
口口口口 |③-④-|
口口口口
口口口口

∨口口∨
|口口|
|⑤⑥| |⑤-⑥-|
⑦口口⑦ |⑦---|
29
口口口口 |----|
口口口口 |----|
口口口口 |----|
①口口① |--①-|
30
口口口口 |①-②-|
①②④③ |③-④-|
口⑤⑥口 |⑤-⑥-|
口口口口

口∨∨口
口||口
口||口
口⑦⑦口 |⑦---|
31
口口口口 |----|
口口口口 |----|
口口口口 |----|
口①①口 |--①-|
32
口③口口 |①-②-|
口②口口 |③-④-|
①口口④
口口口口

∨口⑥∨
|口⑤|
|口口| |⑤-⑥-|
⑦口口⑦ |⑦---|
33
口口口口 |----|
口口口口 |----|
口口口口 |----|
①口口① |--①-|
34
口口口口 |①-②-|
②④④③ |③-④-|
口①①口
口口口口

⑤∨∨⑥
口||口
口||口 |⑤-⑥-|
口⑦⑦口 |⑦---|
35
口口口口 |----|
口口口口 |----|
口口口口 |----|
口口口口 |----|
36
口口口口 |----|
②口口口 |----|
口口口口 |----|
口①①口 |①-②-|
37
①⑥口③ |①-②-|
口口⑤② |③-④-|
口④口口 |⑤-⑥-|
⑦口口口 |--⑦-|
38
口④③③ |①--②|
口口⑤口 |--③-|
①⑥口口 |--④-|
口口②② |⑤-⑥-|
39
⑤口口⑥ |①---|
①④口① |--②③|
⑦口③口 |④-⑤-|
①②口① |⑥-⑦-|
40
⑥口口⑦ |①-②-|
②口口③ |③-④-|
⑧口口① |⑤-⑥-|
④口口⑤ |⑦-⑧-|
41
口①②口 |--①-|
口①②口 |----|
③①②口 |②---|
口①②口 |--③-|
42
口④口② |①--②|
口③口① |--③-|
⑥④⑥② |-④--|
⑤③⑤① |⑤-⑥-|
43
口口口口 |①---|
①②①② |----|
口②口② |②---|
口口口口 |----|
44
②⑤⑤② |①-②-|
⑥③③口 |--③-|
口口口口 |--④-|
①④④① |⑤-⑥-|
45
①⑥口③ |①-②-|
口口⑤② |③-④-|
口④口口 |⑤-⑥-|
⑦口口口 |--⑦-|
46
④⑤③③ |①--②|
口口⑥口 |--③-|
①⑦口口 |④-⑤-|
口口②② |⑥-⑦-|
47
⑤口口⑥ |①---|
①④口① |--②③|
⑦口③口 |④-⑤-|
①②口① |⑥-⑦-|
48
⑥口口⑦ |①-②-|
②口口③ |③-④-|
⑧口口① |⑤-⑥-|
④口口⑤ |⑦-⑧-|
49
口①②口 |--①-|
口①②口 |----|
③①②口 |②---|
口①②口 |--③-|
50
⑥口口② |①--②|
⑤①④③ |--③-|
⑥口口② |④--⑤|
⑤①④③ |--⑥-|
51
口口口口 |①---|
口口口口
口①口①
口口口口

―②口
口②―< |--②-|
―②口 |----|
口②―< |----|
52
口口①口 |----|
口①口② |----|
②口①口 |----|
口①口口 |①-②-|
53
②口口① |①-②-|
①口③口 |③-④-|
⑧④⑦口 |⑤-⑥-|
口⑥口⑤ |⑦-⑧-|
54
④⑤⑥口 |--①-|
③口口口 |②-③-|
口口口② |--④-|
①口口口 |⑤-⑥-|
55
口⑦⑦① |--①-|
⑦口②⑦ |②-③-|
口③⑤口 |④-⑤-|
④口口⑥ |⑥-⑦-|
56
口口口口 |--①-|
口①③口 |②-③-|
⑤②④口 |--④-|
口④口口 |--⑤-|
57
①口口② |①-②-|
口③④口 |③-④-|
口⑤⑥口 |⑤-⑥-|
⑦口口⑧ |⑦-⑧-|
58
口口口口 |--①-|
口③⑥口 |②-③-|
②口口⑤ |--④-|
口①④口 |⑤-⑥-|
59
口口口口 |----|
口口口口 |----|
口口口口 |----|
口口口口 |----|
60
口③③口 |----|
口②②口 |----|
口①①口 |--①-|
口口口口 |②-③-|
61
口口口口 |----|
口口口口 |----|
口口口口 |----|
口口口口 |----|
62
―①口 |①---|
口①―< |----|
―①口
口①―<

口口②口
③②口口
口口②口 |----|
口②口口 |②-③-|
63
①口口② |①-②-|
口口口口 |③-④-|
③⑤⑥④ |⑤-⑥-|
口⑦口口 |--⑦-|
64
③④口② |①--②|
口①⑤口 |--③-|
③⑥口② |--④-|
口口口口 |⑤-⑥-|
65
口口口口 |①---|
②――< |----|
――② |②---|
口口①口 |----|
66
口口口口 |----|
①口口口 |----|
口口口① |----|
口口口口 |--①-|
67
口①②口 |--①-|
口①②口 |----|
③①②口 |②---|
口①②口 |--③-|
68
口④口③ |①--②|
①⑤口② |--③-|
口④⑥③ |-④--|
①口口② |⑤-⑥-|
69
口②口口 |①---|
②口口口 |----|
①口口② |②---|
口①②口 |----|
70
口⑤⑤口 |①-②-|
③②②③ |--③-|
③①①③ |--④-|
口④④口 |⑤---|
71
①口口② |①-②-|
口口口口 |③-④-|
③⑤⑥④ |⑤-⑥-|
口⑦口口 |--⑦-|
72
③④④② |①--②|
口①口口 |--③-|
③⑤⑤② |④---|
口口口口 |⑤---|
73
口口口口 |①---|
②――< |----|
――② |②---|
①口口① |----|
74
口口口口 |----|
①口口口 |----|
口口口① |----|
口口口口 |--①-|
75
口①②口 |--①-|
口①②口 |----|
③①②口 |②---|
口①②口 |--③-|
76
口⑥口③ |①--②|
①⑤④② |--③-|
口⑥口③ |④--⑤|
①⑤④② |--⑥-|
77
口口口口 |①---|
①口口①
口口口口
口口口口

②口口②
|口口| |--②-|
|口口| |----|
∧口口∧ |----|
78
⑤①②⑤ |①---|
③口口④ |②---|
口口口口 |③---|
口口口口 |④--⑤|
79
口①②口 |--①-|
口①②口 |----|
口①②口 |②---|
口①②口 |----|
80
③口口③ |①--②|
①口口① |--③-|
①口口①
②口口②

口④④口
⑥口口⑥
口④④口 |④--⑤|
口⑤⑤口 |--⑥-|
81
口口口口 |①-②-|
口①②口 |--③-|
①口口②
③口口③

④⑤⑤④
口口口口
口口口口 |④---|
口口口口 |⑤-|

口∨∨口
口||口
口||口
口⑥⑥口 |⑥-|
82
口口口口 |----|
口口口口 |----|
口口口口 |----|
口口口口 |----|
83
口口口口 |----|
口口口口 |----|
口口口口 |----|
口①①口 |--①-|
最終更新:2019年10月23日 02:05