アットウィキロゴ
からっぽカプセル
内田真礼

BASIC

Level: 3
BPM: 136
Notes: 255

1
口口口口 |----|
口口口口 |----|
口口口口 |----|
口口口口 |----|
2
口①①口 |①---|
口口口口 |----|
口口口口 |----|
口口口口 |----|
3
口口口口 |①---|
口①①口 |----|
口口口口 |----|
口口口口 |----|
4
口口口口 |①---|
口口口口 |----|
口①①口 |----|
口口口口 |----|
5
口口口口 |①---|
口口口口 |----|
口口口口 |----|
口①①口 |----|
6
①口口口 |①---|
②口口口 |----|
口口口口 |②---|
口口口口 |----|
7
口①口口 |①---|
口②口口 |----|
口口口口 |②---|
口口口口 |----|
8
口口①口 |①---|
口口②口 |----|
口口口口 |②---|
口口口口 |----|
9
口口口① |①---|
口口口② |----|
口口口口 |②---|
口口口口 |----|
10
口口口① |①---|
口口口② |②---|
口口口③ |③---|
口口口④ |④---|
11
口口④口 |①---|
口口③口 |②---|
口口②口 |③---|
口口①口 |④---|
12
口①口口 |①---|
口②口口 |②---|
口③口口 |③---|
口④口口 |④---|
13
④口口口 |①---|
③口口口 |②---|
②口口口 |③---|
①口口口 |④---|
14
④③②① |①---|
口口口口 |②---|
口口口口 |③---|
口口口口 |④---|
15
口口口口 |①---|
①②③④ |②---|
口口口口 |③---|
口口口口 |④---|
16
口口口口 |①---|
口口口口 |②---|
④③②① |③---|
口口口口 |④---|
17
口口口口 |①---|
口口口口 |②---|
口口口口 |③---|
①②③④ |④---|
18
口③③口 |①---|
口口②口 |②---|
口口①口 |③---|
口口口口 |----|
19
口口口口 |①---|
②口口② |----|
口①①口 |②---|
口口口口 |----|
20
①①①① |①---|
口口口② |----|
口口口③ |②---|
口口口口 |③---|
21
口口口口 |①---|
口口口口 |②---|
口口③口 |③---|
口口②① |----|
22
口口口口 |①---|
口①口口 |②---|
口②口口 |③---|
④③口口 |④---|
23
口口口口 |①---|
口口口口 |----|
①口口口 |----|
口口口口 |----|
24
①①①① |①---|
②口口口 |----|
③口口口 |②---|
口口口口 |③---|
25
口口口口 |①---|
口口口口 |②---|
口③口口 |③---|
①②口口 |----|
26
口口口口 |①---|
口口①口 |②---|
口口②口 |③---|
口口③④ |④---|
27
口口口口 |①---|
口口口口 |----|
口②②① |②---|
口口口口 |----|
28
①①①① |①---|
口口口② |----|
口口口③ |②---|
口口口口 |③---|
29
口口口口 |①---|
口口口口 |②---|
口口③口 |③---|
口口②① |----|
30
口口口口 |①---|
口①口口 |②---|
口②口口 |③---|
④③口口 |④---|
31
口口口口 |①---|
②③③口 |②---|
①口口口 |③---|
口口口口 |----|
32
①①①① |①---|
口口口② |----|
口口口③ |②---|
口口口口 |③---|
33
口口口口 |①---|
口口口口 |②---|
口口③口 |③---|
口口②① |----|
34
口口口口 |①---|
口①口口 |②---|
口②口口 |③---|
④③口口 |④---|
35
口口口口 |①---|
口口口口 |----|
①②②口 |②---|
口口口口 |----|
36
①①②② |①---|
口口口口 |----|
口口口口 |②---|
口口口口 |----|
37
口口口口 |①---|
口口口口 |②---|
①②③④ |③---|
口口口口 |④---|
38
口口口口 |①---|
②②①① |----|
口口口口 |②---|
口口口口 |----|
39
口口口口 |①---|
口口口口 |②---|
口口口口 |③---|
④③②① |④---|
40
口口口口 |①---|
口①①口 |----|
口②②口 |②---|
口口口口 |----|
41
口口口口 |①---|
①②③口 |②---|
口口口④ |③---|
口口口口 |④---|
42
④③②① |①---|
口口口口 |②---|
口口口口 |③---|
口口口口 |④---|
43
口口口口 |①---|
口口②② |----|
口口①① |②---|
口口口口 |----|
44
口口口口 |①---|
口口口口 |②---|
①②③④ |③---|
口口口口 |④---|
45
口口①① |①---|
口口②② |----|
口口口口 |②---|
口口口口 |----|
46
口④口口 |①---|
口③口口 |②---|
口②口口 |③---|
口①口口 |④---|
47
口口①① |①---|
口口②② |----|
口口口口 |②---|
口口口口 |----|
48
口口①口 |①---|
口口②口 |②---|
口口③口 |③---|
口口④口 |④---|
49
口口口口 |①---|
口口口口 |----|
②②口口 |②---|
①①口口 |----|
50
口口④④ |①---|
口口③③ |②---|
口口②② |③---|
口口①① |④---|
51
①①口口 |①---|
②②口口 |②---|
③③口口 |③---|
④④口口 |④---|
52
口口口口 |①---|
①①①① |----|
口口口口 |----|
口口口口 |----|
53
口口口① |①---|
口口口② |②---|
口口口③ |③---|
口口口④ |④---|
54
口口④口 |①---|
口口③口 |②---|
口口②口 |③---|
口口①口 |④---|
55
口①口口 |①---|
口②口口 |②---|
口③口口 |③---|
口④口口 |④---|
56
④口口口 |①---|
③口口口 |②---|
②口口口 |③---|
①口口口 |④---|
57
④③②① |①---|
口口口口 |②---|
口口口口 |③---|
口口口口 |④---|
58
口口口口 |①---|
①②③④ |②---|
口口口口 |③---|
口口口口 |④---|
59
口口口口 |①---|
口口口口 |②---|
④③②① |③---|
口口口口 |④---|
60
口口口口 |①---|
口口口口 |②---|
口口口口 |③---|
①②③④ |④---|
61
口口口口 |①---|
口②②口 |----|
口①①口 |②---|
口口口口 |----|
62
口①①口 |①---|
口②②口 |----|
口口口口 |②---|
口口口口 |----|
63
口口口口 |①---|
口口口口 |----|
①口口① |----|
口口口口 |----|
64
①①①① |①---|
口口口② |----|
口口口③ |②---|
口口口口 |③---|
65
口口口口 |①---|
口口口口 |②---|
口口③口 |③---|
口口②① |----|
66
口口口口 |①---|
口①口口 |②---|
口②口口 |③---|
④③口口 |④---|
67
口口口口 |①---|
②②②② |----|
①口口口 |②---|
口口口口 |----|
最終更新:2019年10月23日 02:07