アットウィキロゴ
世界五分前仮説
有形ランペイジ

BASIC

Level: 4
BPM: 140-195
Notes: 202

BPM: 140
1
口口口口 |----|
口口口口 |----|
口口口口 |----|
口口口口 |----|
2
口口口口 |①---|
口口口口 |----|
口①①口 |--|
口口口口
3
口口口口 |①---|
口口口口 |--|
口①①口
口口口口
4
口口口口 |①---|
口①①口 |----|
口口口口 |--|
口口口口
5
口口口口 |①---|
口口口口 |----|
口①①口
口口口口
6
①口口① |①---|
口口口口 |--②-|
口口口口 |----|
②口口② |----|
7
①口口① |①---|
口口口口 |--②-|
口口口口 |----|
②口口② |----|
8
口口口口 |①---|
口口口口 |----|
口①①口 |--|
口口口口
9
口口口口 |①---|
口口口口 |--|
口①①口
口口口口
10
口口口口 |①---|
口①①口 |----|
口口口口 |--|
口口口口
11
口口口口 |①---|
口口口口 |----|
口①①口
口口口口
12
①口口① |①---|
口口口口 |--②-|
口口口口 |----|
②口口② |----|
13
①口口① |①---|
口口口口 |--②-|
口口口口 |----|
②口口② |----|
14
口口口口 |①---|
口口②口 |----|
口①口口 |②---|
口口口口

口口口口 |----|
口口口口 |----|
口口口口
口口口口
15
口口口口 |①---|
口②口口 |----|
口口①口 |②---|
口口口口

口口口口 |----|
口口口口 |----|
口口口口
口口口口
16
口口口口 |①---|
口口②口 |----|
口①口口 |②---|
口口口口

口口口口 |----|
口口口口 |----|
口口口口
口口口口
17
③口口③ |①---|
口口口口 |--②-|
口②②口 |----|
口①①口 |③---|
18
口口口口 |①---|
口口②口 |----|
口①口口 |②---|
口口口口

口口口口 |----|
口口口口 |----|
口口口口
口口口口
19
口口口口 |①---|
口②口口 |----|
口口①口 |②---|
口口口口

口口口口 |----|
口口口口 |----|
口口口口
口口口口
20
口口口口 |①---|
口口②口 |----|
口①口口 |②---|
口口口口

口口口口 |----|
口口口口 |----|
口口口口
口口口口
21
③口口③ |①---|
口口口口 |--②-|
口②②口 |----|
口①①口 |③---|
22
口口口口 |①---|
口③口口 |②---|
口②口口 |③---|
口①口口

口④口口 |④---|
⑤口口口 |⑤---|
口口口口
口口口口
23
口口口口 |①---|
口口③口 |②---|
口口②口 |③---|
口口①口

口口④口 |④---|
口口口⑤ |⑤---|
口口口口
口口口口
24
口口口口 |①---|
口③口口 |②---|
口②口口 |③---|
口①口口

口④口口 |④---|
⑤口口口 |⑤---|
口口口口
口口口口
25
③口口③ |①---|
口口口口 |--②-|
口②②口 |----|
口①①口 |③---|
26
口口口口 |①---|
口③口口 |②---|
口②口口 |③---|
口①口口

口④口口 |④---|
⑤口口口 |⑤---|
口口口口
口口口口
27
口口口口 |①---|
口口③口 |②---|
口口②口 |③---|
口口①口

口口④口 |④---|
口口口⑤ |⑤---|
口口口口
口口口口
28
口口口口 |①---|
口③口口 |②---|
口②口口 |③---|
口①口口

口④口口 |④---|
⑤口口口 |⑤---|
口口口口
口口口口
29
③口口③ |①---|
口口口口 |--②-|
口②②口 |----|
口①①口 |③---|
30
口口口口 |----|
口口口口 |----|
口①口口 |①---|
口口口口 |----|
31
――① |①---|
口口口口 |----|
口口口口
口口口口

口口口②
口口口口
口口口口 |----|
口口口口 |②---|

BPM在140附近飄忽不定
32
口口口口 |①---|
口①口口 |----|
口口②口 |②---|
口口口口 |----|
33
口口口口 |①---|
口口口口 |----|
口口口口
口①―<

口口口口
口口口口
口口口口 |----|
口②口口 |②---|
34
口口口口 |①---|
口②②口 |----|
口②②口 |②---|
口口①口 |----|
35
①――< |①---|
口口口口 |----|
口口口口
口口口口

②口口口
口口口口
口口口口 |----|
口口口口 |②---|
36
口口口口 |①---|
口口①口 |----|
口②口口 |②---|
口口口口 |----|
37
口口∨口 |①---|
口口|口 |----|
口口|口 |----|
口口①口 |----|
38
口口口口 |①---|
口口口口 |②---|
口③口口 |③---|
②口①口
39
口口口口 |①---|
――① |----|
口口口口 |----|
口口口口 |----|
40
口口口口 |①---|
口口口① |②---|
口口③口 |③---|
口②口口
41
口口口口 |①---|
①――< |----|
口口口口 |----|
口口口口 |----|
42
口口口口 |①---|
①口口口 |②---|
口③口口 |③---|
口口②口
43
口口口口 |①---|
――① |----|
口口口口 |----|
口口口口 |----|
44
口口口口 |①---|
口口口① |----|
口口口口 |----|
口口口口 |----|
45
口口口口 |----|
口口口口 |----|
口口口口 |----|
口口口口 |----|
46
口口口口 |----|
口口口口 |----|
口口口口 |----|
口口口口 |----|

BPM在125附近飄忽不定
47
口口口口 |①---|
口口口口 |----|
口②口口 |②---|
①口口口 |----|
48
口口口② |①---|
口口①口 |----|
口口口口 |②---|
口口口口 |----|
49
口口口口 |①---|
口①口口 |----|
口口口② |②---|
口口口口 |----|
50
口口④口 |①---|
口③口口 |②---|
口口②口 |③---|
口①口口 |④---|

BPM在195附近飄忽不定
51
口口口口 |①---|
口口口口 |----|
①口口口 |----|
口口口口
52
口口口口 |①---|
口①口口 |----|
口口口口 |----|
口口口口
53
口口口口 |①---|
口口口口 |----|
口口①口 |----|
口口口口
54
口口口口 |①---|
口口口口 |----|
口口口口 |----|
口口口①
55
口口口口 |①---|
口口口口 |----|
口口口口 |----|
口①口口

BPM在140附近飄忽不定
56
口口口口 |①---|
口口口口 |----|
口口①口
口口口口
57
④口口④ |①---|
③口口③ |②---|
②口口② |③---|
①口口① |④---|
58
口②口口 |①---|
口口③口 |②---|
口④①口 |③---|
口口口口 |④---|
59
口口口口 |①---|
口口口③ |②---|
口口口② |③---|
口口口① |----|
60
口口口口 |①---|
口①④口 |②---|
口口②口 |③---|
口③口口 |④---|
61
①口口口 |①---|
②口口口 |②---|
③口口口 |③---|
④口口口 |④---|
62
口口口口 |①---|
口②③口 |②---|
口④①口 |③---|
口口口口 |④---|
63
口口口口 |①---|
口口口③ |②---|
口口口② |③---|
口口口① |----|
64
口口口口 |①---|
口①口口 |②---|
口口②口 |③---|
口③④口 |④---|
65
口口口口 |①---|
①――< |----|
口口口口 |----|
口口口口 |----|
66
口口口口 |----|
口口口口 |----|
口口口口 |----|
口口口口 |----|
67
口口口口 |①---|
①口口口 |----|
口口口① |----|
口口口口 |----|
68
口口④口 |①---|
口③口口 |②---|
口口②口 |③---|
口①口口 |④---|
69
①口口口 |①---|
②口口口 |②---|
③口口口 |③---|
④口口口 |④---|
70
口口口① |①---|
口口口② |②---|
口口口③ |③---|
口口口④ |④---|
71
口口口口 |①---|
口口口口 |②---|
口③④口 |③---|
口①②口 |④---|
72
口③④口 |①---|
口①②口 |②---|
口口口口 |③---|
口口口口 |④---|
73
①口口口 |①---|
口口口口 |----|
口口口口 |----|
口口口口 |----|
最終更新:2019年10月23日 02:10