アットウィキロゴ
雪女
かねこちはる

ADVANCED

Level: 9
BPM: 200
Notes: 717

1
口口口口 |----|
口口口口 |----|
口口口口 |----|
口口口口 |----|
2
口口口口 |----|
口口口口 |----|
口口口口 |----|
口口口口 |----|
3
①口口④ |①-②-|
⑤⑦口② |③-④-|
口口⑧口 |⑤-⑥-|
③口口⑥ |⑦-⑧-|
4
⑤口口⑥ |①-②-|
口口②口 |③-④-|
⑤③口⑥ |⑤---|
口①④口 |⑥---|
5
⑦口口口 |①-②-|
口①④⑧ |③-④-|
口⑤②口 |⑤-⑥-|
口③⑥口 |⑦-⑧-|
6
口口口② |①-②-|
③⑤⑥口 |③-④-|
口口口口 |⑤---|
①⑤⑥④ |⑥---|
7
①口口④ |①-②-|
⑤⑦口② |③-④-|
口口⑧口 |⑤-⑥-|
③口口⑥ |⑦-⑧-|
8
⑤口口⑥ |①-②-|
口口②口 |③-④-|
⑤③口⑥ |⑤---|
口①④口 |⑥---|
9
⑦口口口 |①-②-|
口①④⑧ |③-④-|
口⑤②口 |⑤-⑥-|
口③⑥口 |⑦-⑧-|
10
口口口② |①-②-|
③⑤⑥口 |③-④-|
口口口口 |⑤---|
①⑤⑥④ |⑥---|
11
①①口④ |①-②-|
⑤⑦口② |③-④-|
口口⑧口 |⑤-⑥-|
③口口⑥ |⑦-⑧-|
12
⑤口口⑥ |①-②-|
⑤口②⑥ |③-④-|
⑤③口⑥ |⑤---|
口①④口 |⑥---|
13
⑦口口口 |①-②-|
口①④⑧ |③-④-|
口⑤②口 |⑤-⑥-|
口③⑥口 |⑦-⑧-|
14
口口口② |①-②-|
③⑤⑥口 |③-④-|
⑤口口⑥ |⑤---|
①⑤⑥④ |⑥---|
15
①口口④ |①-②-|
⑤⑦口② |③-④-|
口口⑧口 |⑤-⑥-|
③口口⑥ |⑦-⑧-|
16
⑤口口⑥ |①-②-|
⑤口②⑥ |③-④-|
⑤③口⑥ |⑤---|
口①④口 |⑥---|
17
⑦口口口 |①-②-|
口①④⑧ |③-④-|
口⑤②口 |⑤-⑥-|
口③⑥口 |⑦-⑧-|
18
口⑤⑥② |①-②-|
③口口口 |③-④-|
⑤⑤⑥⑥ |⑤---|
①口口④ |⑥---|
19
③③④④ |①---|
口①①口 |②-③-|
⑤⑤口口 |--④-|
口②②口 |⑤---|
20
④口口⑤ |①-②-|
口口①① |--③-|
⑤口口④ |④---|
③③②② |⑤---|
21
口口⑤⑤ |①---|
③③口口 |②-③-|
口①①口 |--④-|
④④②② |⑤---|
22
①①口口 |①-②-|
⑤口口④ |--③-|
③③②② |④---|
④口口⑤ |⑤---|
23
――② |①---|
口①①口 |--②-|
口口口口
口口口口

口口口③
③口口口
口口口口 |----|
口口口口 |--③-|
24
口口口口 |①-②-|
口口口口 |③-④-|
④③②① |⑤-⑥-|
⑧⑦⑥⑤ |⑦-⑧-|
25
口口口∨ |①---|
口口口| |----|
口口口①
口口口口

②口口口
|口口口
∧口口② |②---|
口口口口 |----|
26
①口∨∨ |①---|
口口|| |②---|
口口||
口口②①

∨∨口口
||口口
||口口 |③---|
④③口口 |④---|
27
③③④④ |①---|
口①②② |②-③-|
⑤⑤口口 |--④-|
①①①① |⑤---|
28
③③口口 |①-②-|
①①口④ |--③-|
⑤口口⑤ |④---|
④口②② |⑤---|
29
③③④④ |①---|
口①①口 |②-③-|
口口口口 |--④-|
⑤⑤②② |⑤---|
30
④⑤④⑤ |①-②-|
②②口口 |--③-|
⑥口①① |④---⑤-|
口⑥③③ |--⑥-|
31
口⑥口口 |①---|
②口⑦① |②-③-|
口口①③ |④-⑤-|
④口口⑤ |⑥-⑦-|
32
口口④② |①-②-|
口③口口 |③④-⑤|
口①⑥口 |----|
⑤口口口 |⑥---|
33
∨口口口 |①---|
|口口口 |----|
①口口口
口口口口

口口口②
口口口|
②口口∧ |②---|
口口口口 |----|
34
∨∨口① |①---|
||口口 |②---|
||口口
①②口口

口口∨∨
口口||
口口|| |③---|
口口③④ |④---|
35
口∨∨口 |①---|
口||口 |----|
口①①口 |----|
①①①① |----|
36
口口口口 |----|
口口口口 |----|
口口口口 |----|
口口口口 |----|
37
口口口口 |①---|
口口口口 |----|
口①①口 |----|
口口口口 |----|
38
口口口② |--①-|
③④⑤口 |--②-|
①⑧⑦⑥ |③-④-⑤-|
口口口口 |⑥-⑦-⑧-|
39
口口口口 |①---|
口③口口 |----|
口口口口 |----|
②口口① |②-③-|
40
③口口口 |----|
口口口① |①-②-|
口④②口 |----|
口口口口 |③-④-|
41
口口口口 |----|
口口口口 |①-②-|
③口口① |----|
口④②口 |③-④-|
42
口口口口 |----|
口口①口 |①---|
口口口口 |----|
口口口口 |----|
43
④④①① |①-②-|
⑥⑥⑦⑦ |③-④-|
⑧②③口 |⑤-⑥-|
口口⑤口 |⑦-⑧-|
44
④口①① |①-②-|
⑥⑥口口 |③-④-|
口口口③ |⑤---|
②②⑤⑤ |⑥---|
45
④④①① |①-②-|
口口⑦⑦ |③-④-|
⑧②③⑤ |⑤-⑥-|
⑥⑥口口 |⑦-⑧-|
46
口口⑤⑤ |①-②-|
②②口口 |③-④-|
口④③口 |⑤---|
⑥⑥①① |⑥---|
47
口⑤⑥口 |①-②-|
①口口② |③-④-|
③口口④ |⑤-⑥-|
口⑦⑧口 |⑦-⑧-|
48
⑨⑩⑪⑫ |①②③④|
①②③④ |⑤⑥⑦⑧|
⑤⑥⑦⑧ |⑨⑩⑪⑫|
⑬⑭⑮⑯ |⑬⑭⑮⑯|
49
口口口口 |①---|
口①①口 |----|
口口口口 |----|
口口口口 |----|
50
口口口口 |----|
口口口口 |----|
口口口口 |----|
口口口口 |----|
51
∨口口① |①---|
|口口口 |②---|
|口口口
②口口口

口口③口
口口|口
口口|口 |③---|
③口∧口

口∨④口
口|口口
口|口口
口④口口 |④---|
52
口口口口 |①---|
④③②① |②---|
④③②① |③---|
口①口口 |④---|
53
①口口∨ |①---|
口口口| |②---|
口口口|
口口口②

口③口口
口|口口
口|口口 |③---|
口∧口③

口④∨口
口口|口
口口|口
口口④口 |④---|
54
口口口口 |①---|
①②③④ |②---|
①②③④ |③---|
口口①口 |④---|
55
∨口口① |①---|
|口口口 |②---|
|口口口
②口口口

口口③口
口口|口
口口|口 |③---|
③口∧口

口∨④口
口|口口
口|口口
口④口口 |④---|
56
口口口口 |①---|
④③②① |②---|
④③②① |③---|
口①口口 |④---|
57
①口口∨ |①---|
口口口| |②---|
口口口|
口口口②

口③口口
口|口口
口|口口 |③---|
口∧口③

口④∨口
口口|口
口口|口
口口④口 |④---|
58
∨口口口 |①---|
|口口口 |②---|
|口口①
②口①口

口口③口
口口|口
口口|口 |③---|
③口∧口

口∨④口
口|口口
口|口口
口④口口 |④---|
59
口口口口 |①-②-|
④③②① |③-④-|
⑤⑥⑦口 |--⑤-|
口①口口 |⑥-⑦-|
60
口④②⑥ |①-②-|
③口口口 |③-④-|
口口口⑤ |⑤-⑥-|
⑦口口① |⑦---|
61
口④口口 |①-②-|
口口②① |③-④-|
③⑦⑥⑤ |--⑤-|
口口口口 |⑥-⑦-|
62
⑥口口⑤ |①-②-|
口④②口 |③-④-|
口口口口 |⑤---|
③口口① |⑥---|
63
⑤⑥⑦口 |①-②-|
口口口口 |③-④-|
④③②① |--⑤-|
口口口口 |⑥-⑦-|
64
口口口口 |①-②-|
口④②口 |③-④-|
⑥口口⑤ |⑤---|
③口口① |⑥---|
65
口④口口 |①---|
口口③口 |②---|
口②口口 |③---|
口口①口 |④---|
66
口口①口 |①---|
口口口口 |----|
口口口口 |②---|
②口口口 |----|
67
④④⑥⑥ |①-②-|
⑧①①口 |③-④-|
⑦⑦⑤② |⑤-⑥-|
口③③口 |⑦-⑧-|
68
⑤口口⑥ |①-②-|
口③①① |③-④-|
⑥口口⑤ |⑤---|
④④②② |⑥---|
69
⑧口⑦⑦ |①-②-|
④④⑤② |③-④-|
口①①口 |⑤-⑥-|
⑥⑥③③ |⑦-⑧-|
70
⑥③⑥口 |①-②-|
口口口⑤ |③-④-|
①①②② |⑤---|
⑤口④④ |⑥---|
71
――② |①---|
口①①口 |--②-|
口口口口
口口口口

口口口③
③口口口
口口口口 |----|
口口口口 |--③-|
72
口口口口 |①-②-|
口口口口 |③-④-|
④③②① |⑤-⑥-|
⑧⑦⑥⑤ |⑦-⑧-|
73
口口口∨ |①---|
口口口| |----|
口口口①
口口口口

②口口口
|口口口
∧口口② |②---|
口口口口 |----|
74
①口∨∨ |①---|
口口|| |②---|
口口||
口口②①

∨∨口口
||口口
||口口 |③---|
④③口口 |④---|
75
③③口口 |①---|
口①②② |②-③-|
口口口口
①①①①

口口⑤⑤
口口口口
⑥⑥口④ |④-⑤-|
口⑦口口 |⑥-⑦-|
76
④④口口 |①-②-|
①①口⑤ |③-④-|
⑥口③⑥ |⑤---|
⑤口②② |⑥---|
77
④④⑥⑥ |①-②-|
口①①⑤ |③-④-|
⑧②口口 |⑤-⑥-|
⑦⑦③③ |⑦-⑧-|
78
⑤⑥⑤⑥ |①-②-|
②②口口 |③-④-|
⑦③①① |⑤---⑥-|
口⑦④④ |--⑦-|
79
口⑥口口 |①---|
②口⑦① |②-③-|
口口①③ |④-⑤-|
④口口⑤ |⑥-⑦-|
80
口口④② |①-②-|
口③口口 |③④-⑤|
口①⑥口 |----|
⑤口口口 |⑥---|
81
∨口口口 |①---|
|口口口 |----|
①口口口
口口口口

口口口②
口口口|
②口口∧ |②---|
口口口口 |----|
82
∨∨口① |①---|
||口口 |②---|
||口口
①②口口

口口∨∨
口口||
口口|| |③---|
口口③④ |④---|
83
④⑧③口 |①-②-|
口②⑦口 |③-④-|
⑤①口⑥ |⑤-⑥-|
①①①① |⑦-⑧-|
84
⑥⑧口口 |①-②-|
口口口② |③-④-|
口⑦③口 |⑤-⑥-|
口④⑤① |⑦-⑧-|
85
⑧口④③ |①-②-|
口⑦②口 |③-④-|
⑥口口① |⑤-⑥-|
⑤口口口 |⑦-⑧-|
86
口②⑧⑨ |①-②-|
口口③⑦ |③-④⑤|
口④⑥① |-⑥-⑦|
口口口⑤ |-⑧-⑨|
87
④⑦⑧口 |①-②-|
口③②⑥ |③-④-|
口口口口 |⑤-⑥-|
①口口⑤ |⑦-⑧-|
88
口口口口 |①-②-|
②口⑥口 |③-④-|
口⑦③口 |⑤-⑥-|
④①⑧⑤ |⑦-⑧-|
89
④⑧口⑦ |①-②-|
口③⑥口 |③-④-|
②口口⑤ |⑤-⑥-|
口①口口 |⑦-⑧-|
90
口口口口 |①-②-|
②⑥⑤口 |③-④-|
⑥③口⑤ |⑤---|
④口①口 |⑥---|
91
③口口③ |①---|
口④④口 |②---|
⑤口口⑤ |③--④|
②①①② |--⑤-|
92
⑦口③⑥ |①-②-|
①⑦口口 |③-④-|
口④口⑧ |⑤-⑥-|
④①②⑤ |⑦-⑧-|
93
口②口口 |①-②-|
口口④① |③-④-|
②口③口
口口口口

⑧口⑧⑦
⑤⑧口⑧
口口口口 |⑤-⑥-|
口⑤口⑥ |⑦-⑧-|
94
口口口口 |----|
口口口口 |----|
口口口口 |----|
口口口口 |----|
95
口口口口 |----|
口口口口 |----|
口口口口 |----|
口口口口 |----|
96
口口口口 |----|
口口口口 |----|
口口口口 |----|
口口口口 |----|
97
口①②③ |①②③-|
口口口口 |----|
口口口口 |----|
口口口口 |----|
最終更新:2019年10月23日 02:19