アットウィキロゴ
雪女
かねこちはる

EXTREME

Level: 10.1
BPM: 200
Notes(hold): 798(47)

1
口口口口 |----|
口口口口 |----|
口口口口 |----|
口口口口 |----|
2
口口口口 |----|
口口口口 |----|
口口口口 |----|
口口口口 |----|
3
③口口⑥ |①-②-|
口⑦口④ |③-④-|
口②⑤口 |⑤-⑥-|
①⑧口口 |⑦-⑧-|
4
口口④口 |①-②-|
口口②口 |③-④-|
①⑤⑥口 |⑤---|
口口口③ |⑥---|
5
口③口④ |①-②-|
⑦口⑥口 |③-④-|
②口口⑤ |⑤-⑥-|
⑧①口口 |⑦-⑧-|
6
口口口口 |①-②-|
口口口② |③-④-|
⑤①⑥④ |⑤---|
口口③口 |⑥---|
7
口口口口 |①-②-|
①③口④ |③-④-|
口口口口
口②口口

口口口口
⑧口⑥口
口⑦口口 |⑤-⑥-|
口口口⑤ |⑦-⑧-|
8
口①口② |①-②-|
口⑤⑥④ |③-④-|
口口③口 |⑤---|
口口口口 |⑥---|
9
③②口④ |①-②-|
口⑦口⑥ |③-④-|
①口⑤口 |⑤-⑥-|
⑧口口口 |⑦-⑧-|
10
⑤口口⑥ |①-②-|
口口②口 |③-④-|
⑤①④⑥ |⑤---|
口口口③ |⑥---|
11
口①⑦口 |①-②-|
④⑥③① |③-④-|
口②⑤⑦ |⑤-⑥-|
⑧④①口 |⑦-⑧-|
12
口②⑥口 |①-②-|
口口③⑤ |③-④-|
②④口⑥ |⑤---|
口口⑤① |⑥---|
13
③口口口 |①-②-|
⑦①⑥④ |③-④-|
口⑤⑧口 |⑤-⑥-|
①⑦④② |⑦-⑧-|
14
口①②口 |①-②-|
⑥⑤口④ |③-④-|
③口口② |⑤---|
⑤⑥口口 |⑥---|
15
④②③① |①-②-|
口口⑦口 |③-④-|
⑥④①⑤ |⑤-⑥-|
⑧口口⑦ |⑦-⑧-|
16
口口⑤③ |①-②-|
②④口⑥ |③-④-|
口口①⑤ |⑤---|
口②⑥口 |⑥---|
17
①⑦④口 |①-②-|
③⑤②口 |③-④-|
⑦①⑥④ |⑤-⑥-|
口口口⑧ |⑦-⑧-|
18
④口⑥口 |①-②-|
②口③⑤ |③-④-|
口①口⑥ |⑤---|
口②⑤口 |⑥---|
19
口⑤④③ |①---|
⑤口③④ |②-③-|
②①口口 |--④-|
①②口口 |⑤---|
20
①口口⑤ |①-②-|
口①口口 |--③-|
口口③② |④---|
④口②③ |⑤---|
21
④③口⑤ |①---|
③④⑤口 |②-③-|
口口②① |--④-|
口口①② |⑤---|
22
④口①口 |①-②-|
口口口① |--③-|
③②口口 |④---|
②③口⑤ |⑤---|
23
∨口口口 |①---|
|①口口 |--②③|
|口口口 |④---|
④③②口

口口口口
口口口口
口口⑥⑤
⑤口口口 |--⑤⑥|
24
⑦⑧⑨口 |①-②-③-|
①②③口 |④-⑤-⑥-|
口口口口 |⑦-⑧-⑨-|
⑩⑥⑤④ |⑩---|
25
口口口口 |①---|
口口口口 |----|
①――<
口口口口

口口口口
>――②
②口口口 |②---|
口口口口 |----|
26
∨∨口口 |①---|
||口① |②---|
|②口口
①口口口

口口∨④
口口③|
口口口| |③---|
口口口∧ |④---|
27
口⑤①① |①---|
⑤口①口 |②-③-|
②①④③ |--④-|
①②③④ |⑤---|
28
①⑤③② |①-②-|
口①②③ |--③-|
口口口口 |④---|
口④口口 |⑤---|
29
口口口⑤ |①---|
口口⑤口 |②-③-|
④③②① |--④-|
③④①② |⑤---|
30
③②①⑤ |①-②-|
②③⑤① |--③-|
⑥口口④ |④---⑤-|
口⑥④口 |--⑥-|
31
②⑧①口 |①---|
⑤③⑨① |②-③-④-|
口⑥④⑩ |⑤-⑥-⑦-|
口口⑦口 |⑧-⑨-⑩-|
32
口口④② |①-②-|
口③口口 |③④-⑤|
⑤――<
①口口口

口口口口
>――⑥
⑥口口口 |----|
口口口口 |⑥---|
33
口∨口口 |①---|
口|口① |----|
口|口口
口①口口

∨口口口
|口口口
|口口口 |②---|
②②口口 |----|
34
口口∨∨ |①---|
口口|| |②---|
口口②|
①口口①

④∨口口
|③口口
|口口口 |③---|
∧口口口 |④---|
35
①①―< |①---|
口①口口 |----|
口口①口 |----|
>―①① |----|
36
口口口口 |----|
口口口口 |----|
口口口口 |----|
口口口口 |----|
37
口①口口 |①---|
口①口口 |----|
口口①口 |----|
口口①口 |----|
38
口口②口 |--①-|
③⑤口① |--②-|
口④⑧⑦ |③-④-⑤-|
口口⑥口 |⑥-⑦-⑧-|
39
口口③② |①---|
口口口口 |----|
口口口口 |----|
①口口口 |②-③-|
40
口口口③ |----|
①②口口 |①-②-|
口口口口 |----|
口口④口 |③-④-|
41
口口口口 |----|
①口口口 |①-②-|
口②口口 |----|
口口④③ |③-④-|
42
口口口口 |----|
口口口① |①---|
口口口口 |----|
口口口口 |----|
43
⑥口①① |①---|
④③③口 |②-③-|
②口⑤⑤ |④-⑤-|
①⑥口② |⑥---|
44
⑥口⑥口 |①-②-|
⑤口口口 |③-④-|
③①⑤口 |⑤---|
①口②④ |⑥---|
45
⑥口⑤⑤ |①---|
④⑥①① |②-③-|
②③③口 |④-⑤-|
①口口② |⑥---|
46
⑥口口口 |①-②-|
⑤口口① |③-④-|
③⑥⑤口 |⑤---|
①④②口 |⑥---|
47
⑦口口⑧ |①-②-|
⑤口口⑥ |③-④-|
③口口④ |⑤-⑥-|
①口口② |⑦-⑧-|
48
⑮⑦⑧⑯ |①②③④|
⑬⑤⑥⑭ |⑤⑥⑦⑧|
⑪③④⑫ |⑨⑩⑪⑫|
⑨①②⑩ |⑬⑭⑮⑯|
49
口口口口 |①---|
口口口口 |----|
口口口口 |----|
口①①口 |----|
50
口口口口 |----|
口口口口 |----|
口口口口 |----|
口口口口 |----|
51
①口口∨ |①---|
①口口| |②---|
口口口|
口口口②

口③口口
口|口口
口|口口 |③---|
口∧口③

口④∨口
口口|口
口口|口
口口④口 |④---|
52
④⑩⑦① |①-②-③-|
⑪⑤②⑧ |④-⑤-⑥-|
⑥⑫⑨③ |⑦-⑧-⑨-|
口口①口 |⑩-⑪-⑫-|
53
∨口口① |①---|
|口口口 |②---|
|口口口
②口口口

口口③口
口口|口
口口|口 |③---|
③口∧口

口∨④口
口|口口
口|口口
口④口口 |④---|
54
口口口① |①-②-③-|
④⑧②⑦ |④-⑤-⑥-|
⑧⑤⑦③ |⑦---⑧-|
⑥①⑨口 |--⑨-|
55
①口①∨ |①---|
口口口| |②---|
口口口|
口口口②

口③口口
口|口口
口|口口 |③---|
口∧口③

口④∨口
口口|口
口口|口
口口④口 |④---|
56
④⑩⑦① |①-②-③-|
⑪⑤②⑧ |④-⑤-⑥-|
⑥⑫⑨③ |⑦-⑧-⑨-|
口口①口 |⑩-⑪-⑫-|
57
∨口口① |①---|
|口口口 |②---|
|口口口
②口口口

口口③口
口口|口
口口|口 |③---|
③口∧口

口∨④口
口|口口
口|口口
口④口口 |④---|
58
口口口口 |①---|
口口口口
口口口①
口①口口

口②口口
口|口口 |②---|
口|口口
口∧口口

口③∨口
口口|口
口口|口 |③---|
口口③口

∨口口口
|口口口
|口口口
④口④口 |④---|
59
口⑤口④ |①-②-|
③口①口 |③-④-|
口②⑥口 |--⑤-|
①⑦口口 |⑥-⑦-|
60
口口②口 |①-②-|
口⑥④口 |③-④-|
①⑧口⑦ |⑤-⑥-|
⑤口口③ |⑦-⑧-|
61
①口口④ |①-②-|
口口口口 |③-④-|
③口②⑦ |--⑤-|
口⑥口⑤ |⑥-⑦-|
62
口②④口 |①-②-|
①⑥口口 |③-④-|
口口③口 |⑤-⑥-|
⑤口口⑦ |⑦---|
63
口④口口 |①-②-|
⑤口⑥① |③-④-|
口口口③ |--⑤-|
⑦口②口 |⑥-⑦-|
64
②口口④ |①-②-|
口口口⑥ |③-④-|
口①③口 |⑤---|
口⑤口口 |⑥---|
65
①②③④ |①---|
口口口口 |②---|
口口口口 |③---|
口口口口 |④---|
66
口口口口 |①---|
口①口口 |----|
口口②口 |②---|
口口口口 |----|
67
①口口⑦ |①-②-|
⑥④③① |③-④-|
②⑧⑦⑤ |⑤-⑥-|
④⑥①③ |⑦-⑧-|
68
口②①口 |①-②-|
口④③① |③-④-|
②⑥口⑤ |⑤---|
⑥口⑤口 |⑥---|
69
口口③① |①-②-|
②⑥⑦③ |③-④-|
④⑧①⑤ |⑤-⑥-|
⑥④口⑦ |⑦-⑧-|
70
⑥②⑤① |①-②-|
②口口③ |③-④-|
④⑥①⑤ |⑤---|
口④口口 |⑥---|
71
∨口口口 |①---|
|①①口 |--②③|
|口口口 |④---|
④③②口

口口口口
口口口口
口口⑥⑤
⑤口口口 |--⑤⑥|
72
⑦⑧⑨口 |①-②-③-|
①②③口 |④-⑤-⑥-|
口口口口 |⑦-⑧-⑨-|
⑩⑥⑤④ |⑩---|
73
口口口口 |①---|
口口口口 |----|
①――<
口口口口

口口口口
>――②
②口口口 |②---|
口口口口 |----|
74
∨∨口口 |①---|
||口① |②---|
|②口口
①口口口

口口∨④
口口③|
口口口| |③---|
口口口∧ |④---|
75
⑥④①① |①-②-|
②⑥①③ |③-④-|
④①⑦⑤ |⑤-⑥-|
①⑧③⑦ |⑦-⑧-|
76
⑥④⑤① |①-②-|
②口①③ |③-④-|
④⑥口⑤ |⑤---|
②口口口 |⑥---|
77
⑥④⑦⑦ |①-②-|
口⑥①③ |③-④-|
④⑧③⑤ |⑤-⑥-|
②口口① |⑦-⑧-|
78
口④⑥⑦ |①-②-|
②口①⑥ |③-④-|
④口③⑤ |⑤--⑥|
⑦②⑤① |--⑦-|
79
②⑧口口 |①---|
⑤③⑨口 |②-③-④-|
口⑥④⑩ |⑤-⑥-⑦-|
口①⑦① |⑧-⑨-⑩-|
80
口口④② |①-②-|
口③口口 |③④-⑤|
⑤――<
①口口口

口口口口
>――⑥
⑥口口口 |----|
口口口口 |⑥---|
81
口∨口口 |①---|
口|口① |----|
口|口口
口①口口

∨口口口
|口口口
|口口口 |②---|
②②口口 |----|
82
口口∨∨ |①---|
口口|| |②---|
口口②|
①口口①

④∨口口
|③口口
|口口口 |③---|
∧口口口 |④---|
83
①④口③ |①-②-|
口①口口 |③-④⑤|
②口①口
口⑤①①

⑨口⑦口
⑥口口口
口口口口 |-⑥⑦-|
⑧口口口 |⑧-⑨-|
84
口⑨口口 |①-②-|
⑥②口④ |③-④⑤|
口⑦③⑧ |-⑥⑦-|
口⑤口① |⑧-⑨-|
85
④⑨⑦③ |①-②-|
⑥口口口 |③-④⑤|
②口口⑧ |-⑥⑦-|
⑤口①口 |⑧-⑨-|
86
口口口② |①-②-|
口④①③ |③-④⑤|
口口口口
⑤口⑤口

口口口口
⑨口⑨口
⑦⑧⑦⑧ |-⑥-⑦|
口⑥口⑥ |-⑧-⑨|
87
①③④① |①-②-|
口口口② |③-④⑤|
口口口口
口口⑤口

⑨口口口
口⑦口口
口口口口 |-⑥⑦-|
⑧口口⑥ |⑧-⑨-|
88
⑨②⑥口 |①-②-|
口口③⑦ |③-④⑤|
④⑧口① |-⑥⑦-|
口⑤口口 |⑧-⑨-|
89
口④⑨③ |①-②-|
②⑦口口 |③-④⑤|
口口口⑥ |-⑥⑦-|
口⑤⑧① |⑧-⑨-|
90
④口口② |①-②-|
⑥口⑤口 |③-④⑤|
③口口口 |----|
①⑥口⑤ |⑥---|
91
②①①口 |①---|
口口口口 |②---|
②①①口
口口口口

口口⑤口
④③口③
口口⑤口 |③--④|
口④口口 |--⑤-|
92
⑤口⑦② |①-②-|
口⑤②⑧ |③-④-|
⑥口⑧③ |⑤-⑥-|
④⑥③① |⑦-⑧-|
93
⑧②⑧⑤ |①-②-|
③④①口 |③-④-|
⑦③⑦口 |⑤-⑥-|
④⑥⑥① |⑦-⑧-|
94
口①口口 |①②③④|
⑦口④② |⑤⑥⑦⑧|
口③口⑧
⑤口口⑥

⑬口⑭⑩
口⑪口⑯
⑮口⑫口 |⑨⑩⑪⑫|
口⑨口口 |⑬⑭⑮⑯|
95
⑮③⑯⑫ |①②③④|
⑦⑨④⑭ |⑤⑥⑦⑧|
⑬①⑩⑥ |⑨⑩⑪⑫|
⑤⑪②⑧ |⑬⑭⑮⑯|
96
口口口口 |①---|
口口口口 |----|
口①口口 |----|
口口口口 |----|
97
口①②③ |①②③-|
口口口口 |----|
口口口口 |----|
口口口口 |----|
最終更新:2019年12月11日 17:10