アットウィキロゴ
Scream out!
A-One

ADVANCED

Level: 6
BPM: 166
Notes: 484

1
口口口口 |----|
口口口口 |----|
口口口口 |----|
口口口口 |----|
2
口口口口 |①---|
②口口② |----|
口口口口 |②---|
①口口① |----|
3
口口口口 |①---|
口口口口 |----|
①口口①
口口口口

②口口②
口口口口
③口口口 |②---|
口口口口 |--③-|
4
口口口口 |①-②-|
①②③④ |③-④-|
⑧⑦⑥⑤ |⑤-⑥-|
口口口口 |⑦-⑧-|
5
①②③④ |①-②-|
口⑤⑤口 |③-④-|
口口口口 |⑤---|
口口口口 |----|
6
②②④④ |①---|
口口口口 |②---|
①①③③ |③---|
口口口口 |④---|
7
口口口口 |①---|
②②④④ |②---|
口口口口 |③---|
①①③③ |④---|
8
②口口② |①---|
口口口口 |----|
②①①② |----|
口口口口 |--②-|
9
口口口口 |----|
②②②② |----|
口口口口 |①---|
①①①① |②---|
10
口口口口 |①---|
④口口口 |--②-|
①口口③ |③---|
口口②口 |--④-|
11
口口口口 |①--②|
⑤口口口 |--③-|
口③④口 |④---|
①口口② |⑤---|
12
口口口② |①---|
口口口口 |②---|
口③④① |③-④-|
口⑤⑥口 |⑤-⑥-|
13
口口口口 |----|
口口口口 |----|
口口口口 |----|
口口口口 |----|
14
口②②口 |①---|
口口口口 |----|
③口口口 |②---|
口①①口 |--③-|
15
口口口口 |①-②-|
①②③④ |③-④-|
⑦⑥⑤口 |--⑤-|
口口口口 |⑥-⑦-|
16
⑧⑦⑥⑤ |①-②-|
①②③④ |③-④-|
口口口口 |⑤-⑥-|
口口口口 |⑦-⑧-|
17
口口口口 |----|
口①①口 |----|
口②②口 |①---|
口口口口 |②---|
18
∨口口口 |①---|
|口口口
|口口口
①口口口

口口口∨
口口口| |②---|
口口口| |③---|
②口口③

口口口口
口口口口
口口口口
口口口④ |④---|
19
⑤口口⑤ |①--②|
口③④口 |--③-|
①口口② |④---|
口口口口 |⑤---|
20
④口口⑥ |①---|
③口口⑤ |②---|
口①②口 |③-④-|
口口口口 |⑤-⑥-|
21
口口口口 |①---|
口口口口 |②---|
口④⑥口 |③-④-|
①③⑤② |⑤-⑥-|
22
口口口口 |①---|
①口口① |----|
口③口口 |②---|
②口口② |--③-|
23
口④②口 |①-②-|
⑥③①⑦ |③-④-|
口口口⑤ |--⑤-|
口口口口 |⑥-⑦-|
24
口⑦⑧口 |①-②-|
口⑤⑥口 |③-④-|
口③④口 |⑤-⑥-|
口①②口 |⑦-⑧-|
25
口口口口 |----|
②①①② |----|
②①①② |①---|
口口口口 |②---|
26
口②②口 |①---|
口口口口 |-②--|
③口口③ |----|
口①①口 |-③--|
27
口②②口 |①---|
口口口口 |-②--|
③口口③ |----|
口①①口 |-③--|
28
口②②口 |①---|
口口口口 |-②--|
③口口③ |----|
口①①口 |-③--|
29
口②②口 |①---|
③口口③ |-②--|
口口口口 |----|
口①①口 |③---|
30
口②②口 |①---|
口口口口 |-②--|
③口口③ |----|
口①①口 |-③--|
31
口②②口 |①---|
口口口口 |-②--|
③口口③ |----|
口①①口 |-③--|
32
口②②口 |①---|
口口口口 |-②--|
③口口③ |----|
口①①口 |-③--|
33
③②②口 |①---|
③④⑤口 |-②--|
口④⑤口 |③--④|
口①①口 |--⑤-|
34
③④⑤⑥ |①---|
口口口口 |②---|
②口口② |③-④-|
口①①口 |⑤-⑥-|
35
口口口口 |--①-|
③②①口 |②-③-|
口④⑤⑥ |--④-|
口口口口 |⑤-⑥-|
36
口口口口 |①---|
②口口① |②---|
口口口口 |③-④-|
③④⑤⑥ |⑤-⑥-|
37
口口口口 |----|
口口口口 |----|
口口口口 |----|
口口口口 |----|
38
口口口口 |①---|
口口口口 |②---|
①口口② |③-④-|
③④⑤⑥ |⑤-⑥-|
39
口口口口 |--①-|
口口口口 |②-③-|
③②①口 |--④-|
口④⑤⑥ |⑤-⑥-|
40
⑦口口⑦ |①---|
①⑥⑤④ |②-③-|
口口②③ |④-⑤-|
口口口口 |⑥-⑦-|
41
口口口口 |--①-|
③口口③ |--②-|
②口口② |--③-|
①口口① |----|
42
④口口口 |①---|
③口口口 |----|
②①①口 |--②-|
口口口口 |③-④-|
43
口⑤⑥③ |①--②|
④口口② |--③-|
口①①口 |--④-|
口口口口 |⑤-⑥-|
44
⑤口口口 |①---|
⑤口口① |②---|
③口口④ |③-④-|
口②②口 |--⑤-|
45
口①②④ |--①-|
口①②口 |--②-|
口口口③ |--③-|
口口口口 |④---|
46
口口口口 |①--②|
③口口口 |--③-|
②⑥⑤④ |--④-|
口①①口 |⑤-⑥-|
47
口口口口 |①--②|
③⑥口口 |--③-|
②口⑤④ |--④-|
口①①口 |⑤-⑥-|
48
口①③口 |①---|
口口②口 |--②-|
口口口口 |③---|
口④④口 |--④-|
49
口∨∨口 |--①-|
①||② |②-③-|
口③③口
口口口口

口口口口
口口口口
口④④口 |----|
口口口口 |--④-|
50
口口口口 |①---|
④口口口 |--②-|
①口口③ |③---|
口口②口 |--④-|
51
口口口口 |①--②|
⑤口口口 |--③-|
口③④口 |④---|
①口口② |⑤---|
52
口口口② |①---|
口口口口 |②---|
口③④① |③-④-|
口⑤⑥口 |⑤-⑥-|
53
口口口口 |----|
口口口口 |----|
口口口口 |----|
口口口口 |----|
54
口②②口 |①---|
口口口口 |----|
③口口口 |②---|
口①①口 |--③-|
55
口口口口 |①-②-|
①②③④ |③-④-|
⑦⑥⑤口 |--⑤-|
口口口口 |⑥-⑦-|
56
⑧⑦⑥⑤ |①-②-|
①②③④ |③-④-|
口口口口 |⑤-⑥-|
口口口口 |⑦-⑧-|
57
口口口口 |----|
口①①口 |----|
口②②口 |①---|
口口口口 |②---|
58
∨口口口 |①---|
|口口口
|口口口
①口口口

口口口∨
口口口| |②---|
口口口| |③---|
②口口③

口口口口
口口口口
口口口口
口口口④ |④---|
59
⑤口口⑤ |①--②|
口③④口 |--③-|
①口口② |④---|
口口口口 |⑤---|
60
④口口⑥ |①---|
③口口⑤ |②---|
口①②口 |③-④-|
口口口口 |⑤-⑥-|
61
口口口口 |①---|
口口口口 |②---|
口④⑥口 |③-④-|
①③⑤② |⑤-⑥-|
62
口口口口 |①---|
①口口① |----|
口③口口 |②---|
②口口② |--③-|
63
口④②口 |①-②-|
⑥③①⑦ |③-④-|
口口口⑤ |--⑤-|
口口口口 |⑥-⑦-|
64
口⑦⑧口 |①-②-|
口⑤⑥口 |③-④-|
口③④口 |⑤-⑥-|
口①②口 |⑦-⑧-|
65
口②口口 |----|
口①①口 |----|
口①①口 |①---|
口口口口 |②---|
66
③口口⑥ |①--②|
②口口⑤ |--③-|
①口口④ |--④-|
口口口口 |⑤-⑥-|
67
③口口⑥ |①--②|
②口口⑤ |--③-|
①口口④ |--④-|
口口口口 |⑤-⑥-|
68
③口口⑥ |①--②|
②口口⑤ |--③-|
①口口④ |--④-|
口口口口 |⑤-⑥-|
69
口口口口 |①---|
口②②口 |----|
口②②口 |②---|
③①①③ |③---|
70
③口口⑥ |①--②|
②口口⑤ |--③-|
①口口④ |--④-|
口口口口 |⑤-⑥-|
71
③口口⑥ |①--②|
②口口⑤ |--③-|
①口口④ |--④-|
口口口口 |⑤-⑥-|
72
③口口⑥ |①--②|
②口口⑤ |--③-|
①口口④ |--④-|
口口口口 |⑤-⑥-|
73
口口口口 |①---|
③②②③ |----|
③②②③ |②---|
口①①口 |③---|
74
口②②口 |①---|
口口口口 |-②--|
③口口③ |----|
口①①口 |-③--|
75
口②②口 |①---|
口口口口 |-②--|
③口口③ |----|
口①①口 |-③--|
76
口②②口 |①---|
口口口口 |-②--|
③口口③ |----|
口①①口 |-③--|
77
口②②口 |①---|
③口口③ |-②--|
口口口口 |----|
口①①口 |③---|
78
口②②口 |①---|
口口口口 |-②--|
③口口③ |----|
口①①口 |-③--|
79
口②②口 |①---|
口口口口 |-②--|
③口口③ |----|
口①①口 |-③--|
80
口②②口 |①---|
口口口口 |-②--|
③口口③ |----|
口①①口 |-③--|
81
口②②口 |①---|
口口口口 |-②--|
口口口口
口①①口

口口口口
③口口④
口口口口 |③--④|
口⑤⑤口 |--⑤-|
82
口∨∨口 |①---|
口||口 |----|
口①①口
口口口口

口口口口
口口口口
口②②口 |----|
口口口口 |②---|
最終更新:2019年10月24日 02:38