アットウィキロゴ
UROBOROS OVERDIVE
L.E.D. feat. YURiCa/花たん

BASIC

Level: 3
BPM: 160
Notes: 264

1
口口口口 |----|
口口口口 |----|
口口口口 |----|
口口口口 |----|
2
口口口口 |----|
口口口口 |----|
口口口口 |----|
口口口口 |----|
3
口口③① |①---|
口口④② |②---|
口口口口 |③---|
口口口口 |④---|
4
③①口口 |①---|
④②口口 |②---|
口口口口 |③---|
口口口口 |④---|
5
口口口口 |①---|
口口口口 |②---|
口口④② |③---|
口口③① |④---|
6
口口口口 |①---|
口口口口 |②---|
④②口口 |③---|
③①口口 |④---|
7
口②①口 |①---|
口④③口 |②---|
口口口口 |③---|
口口口口 |④---|
8
口口口口 |①---|
口口口口 |②---|
口②①口 |③---|
口④③口 |④---|
9
口口口口 |①---|
②口口② |----|
①口口① |②---|
口口口口 |----|
10
口口口口 |①---|
口②②口 |----|
口①①口 |②---|
口口口口 |----|
11
③④②① |①---|
口口口口 |②---|
口口口口 |③---|
口口口口 |④---|
12
口口口口 |①---|
口口口口 |----|
口①①口 |----|
口口口口 |----|
13
口口口口 |①---|
口口口口 |②---|
口口口口 |③---|
①②④③ |④---|
14
口口口口 |①---|
口口口口 |②---|
①②④③ |③---|
口口口口 |④---|
15
口口口口 |①---|
口口口口 |----|
口口口口 |----|
口①①口 |----|
16
口①口① |①---|
口口口② |②---|
口③口③ |③---|
口口口④ |④---|
17
口口口口 |①---|
口口口口 |----|
口口口口 |----|
①口①口 |----|
18
口口口口 |----|
口口口口 |----|
口口口口 |----|
口口口口 |----|
19
①②④③ |①---|
口口口口 |②---|
口口口口 |③---|
口口口口 |④---|
20
口口口口 |①---|
口口口口 |----|
口①①口 |----|
口口口口 |----|
21
口口口口 |①---|
口口口口 |②---|
口口口口 |③---|
③④②① |④---|
22
口口口口 |①---|
口口口口 |②---|
③④②① |③---|
口口口口 |④---|
23
口口口口 |①---|
口口口口 |----|
口口口口 |----|
口①①口 |----|
24
①口①口 |①---|
②口口口 |②---|
③口③口 |③---|
④口口口 |④---|
25
口口口口 |①---|
口口口口 |----|
口口口口 |----|
口①口① |----|
26
①①口口 |①---|
口口②② |②---|
③③口口 |③---|
口口④④ |④---|
27
口口口口 |①---|
口①①口 |----|
口口口口 |----|
口口口口 |----|
28
口口口口 |①---|
口口口口 |----|
口①口口 |----|
口口口口 |----|
29
口口口口 |①---|
口口口口 |----|
口口①口 |----|
口口口口 |----|
30
口口口口 |①---|
口①①口 |----|
口①①口 |----|
口口口口 |----|
31
口∨口口 |①---|
口①口口 |----|
口口口口 |----|
口口口口 |----|
32
口口口口 |----|
口口口口 |----|
口口口口 |----|
口口口口 |----|
33
口口∨口 |①---|
口①①口 |----|
口口口口 |----|
口口口口 |----|
34
口口口口 |----|
口口①口 |①---|
口口口口 |----|
口口口口 |----|
35
口∨口口 |①---|
口①口口 |----|
口口口口 |----|
口口口口 |----|
36
口口口口 |----|
口①口口 |①---|
口口口口 |----|
口口口口 |----|
37
口口∨口 |①---|
口口①口 |----|
口口口口 |----|
口口口口 |----|
38
口口口口 |----|
口口①口 |----|
口口口口 |①---|
口口口口 |----|
39
口口口口 |①---|
口②口④ |②---|
①口③口 |③---|
口口口口 |④---|
40
口①①口 |①---|
口口口口 |----|
口口口口 |②---|
口②②口 |----|
41
口口口口 |①---|
口③口① |②---|
④口②口 |③---|
口口口口 |④---|
42
口②②口 |①---|
口口口口 |----|
口口口口 |②---|
口①①口 |----|
43
口口口口 |①---|
口②①口 |②---|
口②①口 |----|
口口口口 |----|
44
口①口① |①---|
口口口② |②---|
口③口③ |③---|
口口口④ |④---|
45
口口口口 |①---|
②口②口 |----|
口口口口 |②---|
①口①口 |----|
46
口口口口 |----|
口口口口 |----|
口口口口 |----|
口口口口 |----|
47
口口口口 |①---|
④口②口 |②---|
口③口① |③---|
口口口口 |④---|
48
口①①口 |①---|
口口口口 |----|
口口口口 |②---|
口②②口 |----|
49
口口口口 |①---|
口③口① |②---|
④口②口 |③---|
口口口口 |④---|
50
口②②口 |①---|
口口口口 |----|
口口口口 |②---|
口①①口 |----|
51
口口口口 |①---|
口①②口 |②---|
口①②口 |----|
口口口口 |----|
52
②口口② |①---|
口口口口 |----|
口口口口 |②---|
①口口① |----|
53
口口口口 |①---|
口①①口 |②---|
口②②口 |③---|
口③③口 |----|
54
①口口① |①---|
①口口① |----|
口口口口 |----|
口口口口 |----|
55
口口③① |①---|
口口④② |②---|
口口口口 |③---|
口口口口 |④---|
56
③①口口 |①---|
④②口口 |②---|
口口口口 |③---|
口口口口 |④---|
57
口口口口 |①---|
口②②口 |----|
口①①口 |②---|
口口口口 |----|
58
口口口口 |①---|
②口口② |----|
①口口① |②---|
口口口口 |----|
59
口口口口 |①---|
口口②口 |----|
口口①口 |②---|
口口口口 |----|
60
口口口口 |①---|
口①口口 |----|
口②口口 |②---|
口口口口 |----|
61
口口口口 |①---|
口口②口 |----|
口口①口 |②---|
口口口口 |----|
62
口口口口 |①---|
口①口口 |----|
口②口口 |②---|
口口口口 |----|
63
口口口口 |①---|
口口②口 |----|
口口①口 |②---|
口口口口 |----|
64
口口口口 |①---|
口①口口 |----|
口②口口 |②---|
口口口口 |----|
65
口口口口 |①---|
口口②口 |----|
口口①口 |②---|
口口口口 |----|
66
口口口口 |①---|
口①口口 |----|
口②口口 |②---|
口口口口 |----|
67
口口口口 |①---|
口②口④ |②---|
①口③口 |③---|
口口口口 |④---|
68
口①①口 |①---|
口口口口 |----|
口口口口 |②---|
口②②口 |----|
69
口口口口 |①---|
口③口① |②---|
④口②口 |③---|
口口口口 |④---|
70
口②②口 |①---|
口口口口 |----|
口口口口 |②---|
口①①口 |----|
71
口口口口 |①---|
口②①口 |②---|
口②①口 |----|
口口口口 |----|
72
口①口① |①---|
口口口② |②---|
口③口③ |③---|
口口口④ |④---|
73
口口口口 |①---|
②口②口 |----|
口口口口 |②---|
①口①口 |----|
74
口口口口 |----|
口口口口 |----|
口口口口 |----|
口口口口 |----|
75
口口口口 |①---|
④口②口 |②---|
口③口① |③---|
口口口口 |④---|
76
口①①口 |①---|
口口口口 |----|
口口口口 |②---|
口②②口 |----|
77
口口口口 |①---|
口③口① |②---|
④口②口 |③---|
口口口口 |④---|
78
口②②口 |①---|
口口口口 |----|
口口口口 |②---|
口①①口 |----|
79
口口口口 |①---|
口①②口 |②---|
口①②口 |----|
口口口口 |----|
80
②口口② |①---|
口口口口 |----|
口口口口 |②---|
①口口① |----|
81
口口口口 |①---|
口①①口 |②---|
口②②口 |③---|
口③③口 |----|
82
①口口① |①---|
①口口① |----|
口口口口 |----|
口口口口 |----|
最終更新:2019年10月24日 02:41